Loading...

World War Four 2018 HDRip CROPPED x264-Kamikaze

  • Category Movies
  • Type Divx/Xvid
  • Language English
  • Total size 794.8 MB
  • Uploaded By Dingie
  • Downloads 883
  • Last checked 2 months ago
  • Date uploaded 2 months ago
  • Seeders 27
  • Leechers 7

Infohash : ED4BF82697179E285C367CAD0C5CF9F506AE2D39



World War Four 2018 HDRip CROPPED x264-Kamikaze

Source: 720p KORSUB HDRip H264 AAC-RTM // cropped the bottom line of subs off

//www.imdb.com/title/tt6395918/

can you survive a total war?

General
Complete name : World War Four 2018 HDRip CROPPED x264-Kamikaze.mkv
Format : Matroska
Format version : Version 2
File size : 785 MiB
Duration : 1 h 25 min
Overall bit rate mode : Variable
Overall bit rate : 1 284 kb/s
Encoded date : UTC 2019-05-25 05:23:25
Writing application : mkvmerge v32.0.0 ('Astral Progressions') 64-bit
Writing library : libebml v1.3.7 + libmatroska v1.5.0

Video
ID : 1
Format : AVC
Format/Info : Advanced Video Codec
Format profile : [email protected]
Format settings : CABAC / 3 Ref Frames
Format settings, CABAC : Yes
Format settings, Reference frames : 3 frames
Codec ID : V_MPEG4/ISO/AVC
Duration : 1 h 25 min
Bit rate mode : Variable
Bit rate : 898 kb/s
Maximum bit rate : 40.0 Mb/s
Width : 720 pixels
Height : 272 pixels
Display aspect ratio : 2.647
Frame rate mode : Constant
Frame rate : 24.000 FPS
Color space : YUV
Chroma subsampling : 4:2:0
Bit depth : 8 bits
Scan type : Progressive
Bits/(Pixel*Frame) : 0.191
Stream size : 549 MiB (70%)
Writing library : x264 core 157 r2969 d4099dd

Audio
ID : 2
Format : AC-3
Format/Info : Audio Coding 3
Commercial name : Dolby Digital
Codec ID : A_AC3
Duration : 1 h 25 min
Bit rate mode : Constant
Bit rate : 384 kb/s
Channel(s) : 2 channels
Channel layout : L R
Sampling rate : 44.1 kHz
Frame rate : 28.711 FPS (1536 SPF)
Bit depth : 16 bits
Compression mode : Lossy
Stream size : 235 MiB (30%)
Language : English
Service kind : Complete Main
Default : Yes
Forced : No

//imgur.com/a/ugBJaxZ






Files:

World War Four 2018 HDRip CROPPED x264-Kamikaze
  • Sample.mkv (10.1 MB)
  • World War Four 2018 HDRip CROPPED x264-Kamikaze.mkv (784.7 MB)
  • World War Four 2018 HDRip CROPPED x264-Kamikaze.txt (3.4 KB)

Comments

Code:

  • udp://tracker.coppersurfer.tk:6969/announce
cdn
DOWNLOAD Torrent
X
Attention! Use a VPN when Accessing Free Content !
Your IP address is - Country:
Your Internet provider Tracks your Activity! Hide your IP ADDRESS with a VPN!
Bonus: Get Lag-Free Streams & No popups with any VPN Purchased !

Download Here