Loading...

BBC Young Dancer 2019 Grand Final (1280x720p HD, 50fps, soft Eng ...

  • Category TV
  • Type HD
  • Language English
  • Total size 4.5 GB
  • Uploaded By ElsonRoa
  • Downloads 17
  • Last checked 3 months ago
  • Date uploaded 3 months ago
  • Seeders 1
  • Leechers 0

Infohash : EE52478913EB3E6FFD70C9F664CCDAA4F387E053

BBC Young Dancer 2019 Grand Final (1280x720p HD, 50fps, soft Eng subs)

Five exceptional dancers compete for the overall title as BBC Young Dancer 2019 reaches its finale. Anita Rani and Ore Oduba present full coverage of the Grand Final as Birmingham Hippodrome plays host to this prestigious competition for the first time. The finalists perform in front of packed house including a judging panel made up some of the UK's leading dance figures. Competing for the title are the winners from the South Asian Dance, Contemporary, Ballet and Street Dance Finals together with one dancer awarded the judges 'wildcard' place.

Tasked with choosing the winner are a panel of dance experts: Emma Gladstone - artistic director and chief executive of Dance Umbrella; Wayne McGregor - founder Studio Wayne McGregor and resident choreographer at the Royal Ballet; Shobana Jayasingh - founder Shobana Jayasingh Dance; B-boy Junior Bosila Banya dancer, teacher and member of Wanted Posse crew; Chitra Sundaram- dance/theatre choreographer, performer and educator; and Christopher Hampson - artistic director and chief executive Scottish Ballet.

In the Grand Final each dancer has been paired with a leading choreographer to create a brand new solo for the occasion. They will also dance a solo and duet or pas de deux from their repertoire. At the end of the evening one will be named BBC Young Dancer 2019 - joining previous winners Connor Scott and Nafisah Baba.

Special guests joining us for the evening include Jonzi D who was the chair of the judging panel throughout the Category Finals and Xander Parish, principal dancer Mariinsky Ballet.

First broadcast: 18 May 2019
Duration: 126 minutes

Torrent dead? Request reseed at torrentgalaxy.org - or ask at elsonroa at tutanota.com



Media info:
General
Format : MPEG-4
Format profile : Base Media
Codec ID : isom (isom/iso2/avc1/mp41)
File size : 4.52 GiB
Duration : 2h 6mn
Overall bit rate : 5 139 Kbps
Writing application : Lavf57.83.100

Video
ID : 1
Format : AVC
Format/Info : Advanced Video Codec
Format profile : [email protected]
Format settings, CABAC : Yes
Format settings, ReFrames : 4 frames
Codec ID : avc1
Codec ID/Info : Advanced Video Coding
Duration : 2h 6mn
Bit rate : 4 811 Kbps
Width : 1 280 pixels
Height : 720 pixels
Display aspect ratio : 16:9
Frame rate mode : Constant
Frame rate : 50.000 fps
Standard : Component
Color space : YUV
Chroma subsampling : 4:2:0
Bit depth : 8 bits
Scan type : Progressive
Bits/(Pixel*Frame) : 0.104
Stream size : 4.24 GiB (94%)
Encoded date : UTC 1904-01-01 00:00:00
Tagged date : UTC 1904-01-01 00:00:00
Color range : Limited
Color primaries : BT.709
Transfer characteristics : BT.709
Matrix coefficients : BT.709

Audio
ID : 2
Format : AAC
Format/Info : Advanced Audio Codec
Format profile : LC
Codec ID : 40
Duration : 2h 6mn
Bit rate mode : Constant
Bit rate : 317 Kbps
Channel(s) : 2 channels
Channel positions : Front: L R
Sampling rate : 48.0 KHz
Frame rate : 46.875 fps (1024 spf)
Compression mode : Lossy
Stream size : 286 MiB (6%)

Files:

BBC Young Dancer 2019 Grand Final
  • About this torrent.txt (0.0 KB)
  • BBC Young Dancer 2019 Grand Final.jpg (644.0 KB)
  • BBC Young Dancer 2019 Grand Final.mp4 (4.5 GB)
  • BBC Young Dancer 2019 Grand Final.srt (130.1 KB)
  • If this torrent is dead.txt (0.1 KB)
  • Torrent Downloaded From 1337xproxy.info.txt (0.0 KB)
  • [TGx]Downloaded from torrentgalaxy.org .txt (0.6 KB)

There are currently no comments. Feel free to leave one :)

Code:

  • udp://tracker.leechers-paradise.org:6969/announce
  • udp://bt.xxx-tracker.com:2710/announce
  • udp://tracker.internetwarriors.net:1337/announce
  • udp://tracker.openbittorrent.com:80/announce
  • udp://explodie.org:6969/announce
  • udp://tracker.moeking.me:6969/announce
  • udp://tracker.opentrackr.org:1337/announce
  • udp://tracker.tiny-vps.com:6969/announce
DOWNLOAD Torrent
X
Attention! Use a VPN when Accessing Free Content !
Your IP address is - Country:
Your Internet provider Tracks your Activity! Hide your IP ADDRESS with a VPN!
Bonus: Get Lag-Free Streams & No popups with any VPN Purchased !

Download Here