Loading...

Gakuen Babysitters [2018] 1080p WebRip x265 AAC 2.0 Kira [SEV]

  • Category Anime
  • Type Subbed
  • Language Japanese
  • Total size 3.4 GB
  • Uploaded By 1337xKira
  • Downloads 26
  • Last checked 3 weeks ago
  • Date uploaded 3 weeks ago
  • Seeders 2
  • Leechers 8

Infohash : DAE4EA5BFA6C8872BC3A9F9DDB401A264F965877



Screenshot's



Media Information

Code:

General
Unique ID : 274089461104249876630055525339448625743 (0xCE33B5C65F2EAA87B17843835A764A4F)
Complete name : Gakuen Babysitters [2018] 1080p WebRip x265 AAC 2.0 Kira [SEV]\Gakuen Babysitters - 01 1080p WebRip x265 AAC 2.0 Kira [SEV].mkv
Format : Matroska
Format version : Version 4
File size : 253 MiB
Duration : 23 min 55 s
Overall bit rate : 1 477 kb/s
Movie name : Gakuen Babysitters : 01
Encoded date : UTC 2019-05-16 10:42:03
Writing application : mkvmerge v33.1.0 ('Primrose') 64-bit
Writing library : libebml v1.3.7 + libmatroska v1.5.0

Video
ID : 1
Format : HEVC
Format/Info : High Efficiency Video Coding
Format profile : Main [email protected]@Main
Codec ID : V_MPEGH/ISO/HEVC
Duration : 23 min 55 s
Bit rate : 1 347 kb/s
Width : 1 920 pixels
Height : 1 080 pixels
Display aspect ratio : 16:9
Frame rate mode : Constant
Frame rate : 23.976 (24000/1001) FPS
Color space : YUV
Chroma subsampling : 4:2:0
Bit depth : 10 bits
Bits/(Pixel*Frame) : 0.027
Stream size : 230 MiB (91%)
Title : Gakuen Babysitters : 01
Writing library : x265 3.0_Au+22-feec4bdf9866:[Windows][MSVC 1920][64 bit] 10bit
Encoding settings : cpuid=1111039 / frame-threads=2 / numa-pools=4 / wpp / no-pmode / no-pme / no-psnr / no-ssim / log-level=2 / input-csp=1 / input-res=1920x1080 / interlace=0 / total-frames=34409 / level-idc=0 / high-tier=1 / uhd-bd=0 / ref=4 / no-allow-non-conformance / no-repeat-headers / annexb / no-aud / no-hrd / info / hash=0 / no-temporal-layers / open-gop / min-keyint=23 / keyint=250 / gop-lookahead=0 / bframes=8 / b-adapt=2 / b-pyramid / bframe-bias=0 / rc-lookahead=100 / lookahead-slices=4 / scenecut=40 / radl=0 / no-splice / no-intra-refresh / ctu=64 / min-cu-size=8 / no-rect / no-amp / max-tu-size=32 / tu-inter-depth=1 / tu-intra-depth=1 / limit-tu=0 / rdoq-level=2 / dynamic-rd=0.00 / no-ssim-rd / signhide / no-tskip / nr-intra=0 / nr-inter=0 / no-constrained-intra / no-strong-intra-smoothing / max-merge=3 / limit-refs=3 / limit-modes / me=3 / subme=7 / merange=92 / temporal-mvp / weightp / no-weightb / no-analyze-src-pics / deblock=0:0 / sao / no-sao-non-deblock / rd=4 / no-early-skip / rskip / no-fast-intra / no-tskip-fast / no-cu-lossless / no-b-intra / no-splitrd-skip / rdpenalty=0 / psy-rd=1.30 / psy-rdoq=1.00 / no-rd-refine / no-lossless / cbqpoffs=3 / crqpoffs=3 / rc=crf / crf=22.5 / qcomp=0.55 / qpstep=4 / stats-write=0 / stats-read=0 / ipratio=1.40 / pbratio=1.30 / aq-mode=3 / aq-strength=1.00 / cutree / zone-count=0 / no-strict-cbr / qg-size=32 / no-rc-grain / qpmax=69 / qpmin=0 / no-const-vbv / sar=0 / overscan=0 / videoformat=5 / range=0 / colorprim=2 / transfer=2 / colormatrix=2 / chromaloc=0 / display-window=0 / max-cll=0,0 / min-luma=0 / max-luma=1023 / log2-max-poc-lsb=8 / vui-timing-info / vui-hrd-info / slices=1 / no-opt-qp-pps / no-opt-ref-list-length-pps / no-multi-pass-opt-rps / scenecut-bias=0.05 / no-opt-cu-delta-qp / no-aq-motion / no-hdr / no-hdr-opt / no-dhdr10-opt / no-idr-recovery-sei / analysis-reuse-level=5 / scale-factor=0 / refine-intra=0 / refine-inter=0 / refine-mv=0 / refine-ctu-distortion=0 / no-limit-sao / ctu-info=0 / no-lowpass-dct / refine-analysis-type=0 / copy-pic=1 / max-ausize-factor=1.0 / no-dynamic-refine / no-single-sei / no-hevc-aq / no-svt / qp-adaptation-range=1.00
Language : Japanese
Default : Yes
Forced : No

Audio
ID : 2
Format : AAC LC
Format/Info : Advanced Audio Codec Low Complexity
Codec ID : A_AAC-2
Duration : 23 min 55 s
Bit rate : 128 kb/s
Channel(s) : 2 channels
Channel layout : L R
Sampling rate : 44.1 kHz
Frame rate : 43.066 FPS (1024 SPF)
Compression mode : Lossy
Stream size : 21.9 MiB (9%)
Title : Japanese DD_2.0
Language : Japanese
Default : Yes
Forced : No

Text #1
ID : 3
Format : ASS
Codec ID : S_TEXT/ASS
Codec ID/Info : Advanced Sub Station Alpha
Duration : 23 min 45 s
Bit rate : 146 b/s
Count of elements : 370
Compression mode : Lossless
Stream size : 25.5 KiB (0%)
Title : English ASS
Language : English
Default : Yes
Forced : No

Text #2
ID : 4
Format : ASS
Codec ID : S_TEXT/ASS
Codec ID/Info : Advanced Sub Station Alpha
Duration : 23 min 45 s
Bit rate : 127 b/s
Count of elements : 354
Compression mode : Lossless
Stream size : 22.1 KiB (0%)
Title : Spanish ASS
Language : Spanish
Default : No
Forced : No

Text #3
ID : 5
Format : ASS
Codec ID : S_TEXT/ASS
Codec ID/Info : Advanced Sub Station Alpha
Duration : 23 min 45 s
Bit rate : 131 b/s
Count of elements : 365
Compression mode : Lossless
Stream size : 22.9 KiB (0%)
Title : Portuguese ASS
Language : Portuguese
Default : No
Forced : No



Source Information

Code:


[Erai-raws] Gakuen Babysitters - 01 ~ 12 [1080p][Multiple Subtitle] (9.6 GB)
[UCCUSS] Gakuen Babysitters 学園ベビーシッターズ 第13話 (OVA) 「その13」 (BD 1920x1080p AVC FLAC) (2.50 GB)



We have no issue with individuals posting or re-uploading our torrents on a platform we aren't on. However, if this is something you'd like to do, please do so in a 'as-is' format. We ask that you do not create a new torrent, include all descriptions you see above including the SEV logo, tags, notes and screenshots. If you'd like to become a permanent poster on a website we don't post to, feel free to get in contact with a Sublime Encoded Video member.

We are recruiting/training new members for SEV & seedbox providers as well as people to help out with subtitles.
As you already know, we deliver quality, so you know the standard.
If you're interested, feel free to contact any of the team members.




Files:

Gakuen Babysitters [2018] 1080p WebRip x265 AAC 2.0 Kira [SEV]
  • Gakuen Babysitters - 01 1080p WebRip x265 AAC 2.0 Kira [SEV].mkv (252.8 MB)
  • Gakuen Babysitters - 02 1080p WebRip x265 AAC 2.0 Kira [SEV].mkv (247.0 MB)
  • Gakuen Babysitters - 03 1080p WebRip x265 AAC 2.0 Kira [SEV].mkv (255.8 MB)
  • Gakuen Babysitters - 04 1080p WebRip x265 AAC 2.0 Kira [SEV].mkv (294.9 MB)
  • Gakuen Babysitters - 05 1080p WebRip x265 AAC 2.0 Kira [SEV].mkv (263.2 MB)
  • Gakuen Babysitters - 06 1080p WebRip x265 AAC 2.0 Kira [SEV].mkv (299.1 MB)
  • Gakuen Babysitters - 07 1080p WebRip x265 AAC 2.0 Kira [SEV].mkv (283.4 MB)
  • Gakuen Babysitters - 08 1080p WebRip x265 AAC 2.0 Kira [SEV].mkv (279.8 MB)
  • Gakuen Babysitters - 09 1080p WebRip x265 AAC 2.0 Kira [SEV].mkv (273.2 MB)
  • Gakuen Babysitters - 10 1080p WebRip x265 AAC 2.0 Kira [SEV].mkv (268.8 MB)
  • Gakuen Babysitters - 11 1080p WebRip x265 AAC 2.0 Kira [SEV].mkv (262.1 MB)
  • Gakuen Babysitters - 12 1080p WebRip x265 AAC 2.0 Kira [SEV].mkv (268.8 MB)
  • Gakuen Babysitters - 13 (OVA) 1080p BDRip x265 AAC 2.0 Kira [SEV].mkv (252.3 MB)

There are currently no comments. Feel free to leave one :)

Code:

  • udp://tracker.leechers-paradise.org:6969/announce
  • udp://tracker.coppersurfer.tk:6969/announce
  • udp://tracker.internetwarriors.net:1337/announce
  • udp://tracker.opentrackr.org:1337/announce
  • udp://exodus.desync.com:6969/announce
  • udp://explodie.org:6969/announce
  • udp://tracker.torrent.eu.org:451/announce
  • //tracker3.itzmx.com:6961/announce
  • udp://tracker.cyberia.is:6969/announce
  • udp://thetracker.org:80/announce
  • udp://open.demonii.si:1337/announce
  • udp://ipv4.tracker.harry.lu:80/announce
  • udp://denis.stalker.upeer.me:6969/announce
  • udp://retracker.lanta-net.ru:2710/announce
  • udp://open.stealth.si:80/announce
  • //open.acgnxtracker.com:80/announce
  • //explodie.org:6969/announce
  • udp://tracker.justseed.it:1337/announce
  • //0d.kebhana.mx:443/announce
  • udp://9.rarbg.me:2710/announce
  • //nyaa.tracker.wf:7777/announce
  • //anidex.moe:6969/announce
DOWNLOAD Torrent