Loading...

Marvels.Agents.of.S.H.I.E.L.D.S06E03.720p.HDTV.x264-KILLERS

  • Category TV
  • Type HD
  • Language English
  • Total size 764.5 MB
  • Uploaded By Dakshvv
  • Downloads 4423
  • Last checked 3 weeks ago
  • Date uploaded 3 weeks ago
  • Seeders 885
  • Leechers 108
90%
May 25, 2019, 2:00 am

Marvel's Agents of S.H.I.E.L.D.

It's a wild night out on the planet of Kitson for the agents. While Fitz and Enoch try their luck at the casino, nearby, Daisy and Simmons find themselves in a much ... groovier situation.

Infohash : BECDCF2143719CF160AB37CF8E4E1A6372C4DCDB



Code:



Video
ID : 1
Format : AVC
Format/Info : Advanced Video Codec
Format profile : [email protected]
Format settings : CABAC / 5 Ref Frames
Format settings, CABAC : Yes
Format settings, ReFrames : 5 frames
Codec ID : V_MPEG4/ISO/AVC
Duration : 41 min 13 s
Bit rate : 2 207 kb/s
Width : 1 280 pixels
Height : 716 pixels
Display aspect ratio : 16:9
Frame rate mode : Constant
Frame rate : 23.976 (24000/1001) FPS
Color space : YUV
Chroma subsampling : 4:2:0
Bit depth : 8 bits
Scan type : Progressive
Bits/(Pixel*Frame) : 0.100
Stream size : 651 MiB (85%)
Writing library : x264 core 157 r2969 d4099dd
Encoding settings : cabac=1 / ref=5 / deblock=1:0:0 / analyse=0x3:0x113 / me=hex / subme=8 / psy=1 / psy_rd=1.00:0.00 / mixed_ref=1 / me_range=16 / chroma_me=1 / trellis=2 / 8x8dct=1 / cqm=0 / deadzone=21,11 / fast_pskip=1 / chroma_qp_offset=-2 / threads=64 / lookahead_threads=5 / sliced_threads=0 / nr=0 / decimate=1 / interlaced=0 / bluray_compat=0 / constrained_intra=0 / bframes=3 / b_pyramid=2 / b_adapt=1 / b_bias=0 / direct=3 / weightb=1 / open_gop=0 / weightp=2 / keyint=250 / keyint_min=23 / scenecut=40 / intra_refresh=0 / rc_lookahead=50 / rc=crf / mbtree=1 / crf=18.0 / qcomp=0.60 / qpmin=0 / qpmax=69 / qpstep=4 / ip_ratio=1.40 / aq=1:1.00
Default : Yes
Forced : No
Color range : Limited
Matrix coefficients : BT.709

Audio
ID : 2
Format : AC-3
Format/Info : Audio Coding 3
Commercial name : Dolby Digital
Codec ID : A_AC3
Duration : 41 min 13 s
Bit rate mode : Constant
Bit rate : 384 kb/s
Channel(s) : 6 channels
Channel layout : L R C LFE Ls Rs
Sampling rate : 48.0 kHz
Frame rate : 31.250 FPS (1536 SPF)
Bit depth : 16 bits
Compression mode : Lossy
Stream size : 113 MiB (15%)
Service kind : Complete Main
Default : Yes
Forced : No

Files:

Marvels.Agents.of.S.H.I.E.L.D.S06E03.720p.HDTV.x264-KILLERS[rarbg]
  • Marvels.Agents.of.S.H.I.E.L.D.S06E03.720p.HDTV.x264-KILLERS.mkv (764.5 MB)
  • RARBG.txt (0.0 KB)
  • RARBG_DO_NOT_MIRROR.exe (0.1 KB)
  • marvels.agents.of.s.h.i.e.l.d.s06e03.720p.hdtv.x264-killers.nfo (10.6 KB)

There are currently no comments. Feel free to leave one :)

Code:

  • //tracker.trackerfix.com:80/announce
  • udp://9.rarbg.me:2750/announce
  • udp://9.rarbg.to:2780/announce
DOWNLOAD Torrent