Loading...

A Simple Favor - Un piccolo favore (2018).720p.H264.italian.engli...

  • Category Movies
  • Type HD
  • Language English
  • Total size 2.3 GB
  • Uploaded By robbyrs
  • Downloads 394
  • Last checked 3 months ago
  • Date uploaded 3 months ago
  • Seeders 6
  • Leechers 1

Infohash : 2E2B7AC5B9219759E9108A71763548A24E0096B3

A Simple Favor - Un piccolo favore (2018).720p.H264.italian.english.Ac3-5.1.sub.ita-MIRCrew


NO FOUND ONLY ORIGINAL RELEASE

My release is always in double track audio italian and Original audio
for select it use VLC or dvd player home
not use wmp

Un piccolo favore - A Simple Favor (2018)

Quality MIRCrew on HD 720p da 2,2 gb










Titolo originale A Simple Favor
Lingua originale inglese
Paese di produzione Stati Uniti d'America, Canada
Anno 2018
Durata 117 min
Rapporto 2,00 : 1
Genere thriller, giallo, drammatico
Regia Paul Feig
Soggetto dal romanzo di Darcey Bell
Sceneggiatura Paul Feig, Jessica Sharzer





Anna Kendrick: Stephanie Smothers
Blake Lively: Emily Nelson
Henry Golding: Sean Townsend
Andrew Rannells: Darren
Linda Cardellini: Diana Hyland
Rupert Friend: Dennis Nylon
Jean Smart: Margaret McLanden
Bashir Salahuddin: det. Summervile
Ian Ho: Nicky Nelson
Joshua Satine: Miles Smothers
Eric Johnson: Davis
Dustin Milligan: Chris





Stephanie Smothers è una madre vedova che gestisce un vlog di ricette. Emily invece è una madre lavoratrice in carriera, il cui figlio Nicky frequenta la stessa scuola elementare del figlio di Stephanie, Miles. Emily e Stephanie diventano amiche e iniziano a frequentarsi.



Stephanie is a single mother with a parenting vlog who befriends Emily, a secretive upper-class woman who has a child at the same elementary school. When Emily goes missing, Stephanie takes it upon herself to investigate.







General

Complete name : Un piccolo favore - A Simple Favor (2018).720p.h264.ita.eng.sub.ita-MIRCrew\Un piccolo favore - A Simple Favor (2018).720p.h264.ita.eng.sub.ita-MIRCrew.mkv
Format : Matroska
Format version : Version 4 / Version 2
File size : 2.29 GiB
Duration : 1h 57mn
Overall bit rate : 2 795 Kbps
Movie name : MIRCrew
Encoded date : UTC 2019-05-23 22:36:19
Writing application : mkvmerge v26.0.0 ('In The Game') 64-bit
Writing library : Lavf54.63.100
COMMENT : mircrew-releases

Video
ID : 1
Format : AVC
Format/Info : Advanced Video Codec
Format profile : [email protected]
Format settings, CABAC : Yes
Format settings, ReFrames : 2 frames
Codec ID : V_MPEG4/ISO/AVC
Duration : 1h 57mn
Bit rate : 1 900 Kbps
Width : 1 280 pixels
Height : 640 pixels
Display aspect ratio : 2.000
Frame rate mode : Variable
Frame rate : 24.000 fps
Color space : YUV
Chroma subsampling : 4:2:0
Bit depth : 8 bits
Scan type : Progressive
Bits/(Pixel*Frame) : 0.097
Stream size : 1.51 GiB (66%)
Title : MIRCrew
Writing library : x264 core 130 r2273
Encoding settings : cabac=1 / ref=2 / deblock=1:0:0 / analyse=0x1:0x131 / me=hex / subme=7 / psy=1 / psy_rd=1.00:0.00 / mixed_ref=0 / me_range=16 / chroma_me=1 / trellis=1 / 8x8dct=0 / cqm=0 / deadzone=21,11 / fast_pskip=1 / chroma_qp_offset=-2 / threads=6 / lookahead_threads=1 / sliced_threads=0 / nr=0 / decimate=1 / interlaced=0 / bluray_compat=0 / constrained_intra=0 / bframes=3 / b_pyramid=0 / b_adapt=1 / b_bias=0 / direct=3 / weightb=1 / open_gop=0 / weightp=2 / keyint=240 / keyint_min=24 / scenecut=40 / intra_refresh=0 / rc_lookahead=40 / rc=abr / mbtree=1 / bitrate=1900 / ratetol=1.0 / qcomp=0.60 / qpmin=10 / qpmax=69 / qpstep=4 / vbv_maxrate=24000 / vbv_bufsize=24000 / nal_hrd=none / ip_ratio=1.40 / aq=1:1.00
Language : Italian
Default : Yes
Forced : No
DURATION : 01:57:30.459000000
NUMBER_OF_FRAMES : 169211
NUMBER_OF_BYTES : 1672174255
_STATISTICS_WRITING_APP : mkvmerge v26.0.0 ('In The Game') 64-bit
_STATISTICS_WRITING_DATE_UTC : 2019-05-24 20:20:16
_STATISTICS_TAGS : BPS DURATION NUMBER_OF_FRAMES NUMBER_OF_BYTES

Audio #1
ID : 2
Format : AC-3
Format/Info : Audio Coding 3
Mode extension : CM (complete main)
Codec ID : A_AC3
Duration : 1h 57mn
Bit rate mode : Constant
Bit rate : 448 Kbps
Channel(s) : 6 channels
Channel positions : Front: L C R, Side: L R, LFE
Sampling rate : 48.0 KHz
Bit depth : 16 bits
Compression mode : Lossy
Delay relative to video : -5ms
Stream size : 377 MiB (16%)
Title : Ita Ac3 5.1
Language : Italian
Default : Yes
Forced : No
DURATION : 01:57:30.496000000
NUMBER_OF_FRAMES : 220328
NUMBER_OF_BYTES : 394827776
_STATISTICS_WRITING_APP : mkvmerge v26.0.0 ('In The Game') 64-bit
_STATISTICS_WRITING_DATE_UTC : 2019-05-24 20:20:16
_STATISTICS_TAGS : BPS DURATION NUMBER_OF_FRAMES NUMBER_OF_BYTES

Audio #2
ID : 3
Format : AC-3
Format/Info : Audio Coding 3
Mode extension : CM (complete main)
Codec ID : A_AC3
Duration : 1h 57mn
Bit rate mode : Constant
Bit rate : 448 Kbps
Channel(s) : 6 channels
Channel positions : Front: L C R, Side: L R, LFE
Sampling rate : 48.0 KHz
Bit depth : 16 bits
Compression mode : Lossy
Delay relative to video : -5ms
Stream size : 377 MiB (16%)
Title : Eng Ac3 5.1
Language : English
Default : No
Forced : No
DURATION : 01:57:30.496000000
NUMBER_OF_FRAMES : 220328
NUMBER_OF_BYTES : 394827776
_STATISTICS_WRITING_APP : mkvmerge v26.0.0 ('In The Game') 64-bit
_STATISTICS_WRITING_DATE_UTC : 2019-05-24 20:20:16
_STATISTICS_TAGS : BPS DURATION NUMBER_OF_FRAMES NUMBER_OF_BYTES

Menu
00:00:00.000 : :Capitolo 01
00:07:15.083 : :Capitolo 02
00:14:36.500 : :Capitolo 03
00:24:39.667 : :Capitolo 04
00:31:01.500 : :Capitolo 05
00:36:42.250 : :Capitolo 06
00:42:36.500 : :Capitolo 07
00:53:44.583 : :Capitolo 08
01:01:13.625 : :Capitolo 09
01:06:01.750 : :Capitolo 10
01:13:15.000 : :Capitolo 11
01:21:05.833 : :Capitolo 12
01:28:08.167 : :Capitolo 13
01:38:09.917 : :Capitolo 14
01:44:00.875 : :Capitolo 15
01:50:55.458 : :Capitolo 16



Files:

Un piccolo favore - A Simple Favor (2018).720p.h264.ita.eng.sub.ita-MIRCrew
  • Un piccolo favore - A Simple Favor (2018).720p.h264.ita.eng.sub.ita-MIRCrew.ita.idx (68.7 KB)
  • Un piccolo favore - A Simple Favor (2018).720p.h264.ita.eng.sub.ita-MIRCrew.ita.sub (10.5 MB)
  • Un piccolo favore - A Simple Favor (2018).720p.h264.ita.eng.sub.ita-MIRCrew.mkv (2.3 GB)

There are currently no comments. Feel free to leave one :)

Code:

  • udp://tracker.coppersurfer.tk:6969/announce
  • udp://tracker.torrent.eu.org:451/announce
  • udp://tracker.pirateparty.gr:6969/announce
  • udp://tracker.opentrackr.org:1337/announce
  • udp://tracker.leechers-paradise.org:6969/announce
  • udp://tracker.eddie4.nl:6969/announce
  • udp://shadowshq.yi.org:6969/announce
  • udp://shadowshq.eddie4.nl:6969/announce
  • udp://inferno.demonoid.pw:3391/announce
  • udp://eddie4.nl:6969/announce
  • udp://9.rarbg.to:2730/announce
  • udp://9.rarbg.com:2710/announce
  • udp://9.rarbg.me:2780/announce
  • udp://62.138.0.158:6969/announce
  • udp://151.80.120.114:2710/announce
DOWNLOAD Torrent
X
Attention! Use a VPN when Accessing Free Content !
Your IP address is - Country:
Your Internet provider Tracks your Activity! Hide your IP ADDRESS with a VPN!
Bonus: Get Lag-Free Streams & No popups with any VPN Purchased !

Download Here