Loading...

Caged - Prima Colpa (1950).H264.italian.english.Ac3.sub.ita-MIRCr...

  • Category Movies
  • Type h.264/x264
  • Language English
  • Total size 1.1 GB
  • Uploaded By robbyrs
  • Downloads 47
  • Last checked 3 months ago
  • Date uploaded 3 months ago
  • Seeders 11
  • Leechers 1

Infohash : 1EF2D24F1ECFF2A501A85F3A3A52CF78B2704B16

Caged - Prima Colpa (1950).H264.italian.english.Ac3.sub.ita-MIRCrew


NO FOUND ONLY ORIGINAL RELEASE

My release is always in double track audio italian and Original audio
for select it use VLC or dvd player home
not use wmp

Prima Colpa - Caged (1950)










Titolo originale Caged
Lingua originale inglese
Paese di produzione Stati Uniti d'America
Anno 1950
Durata 96 min
Dati tecnici B/N
rapporto: 1.37 : 1
Genere poliziesco, drammatico
Regia John Cromwell
Soggetto Virginia Kellogg, Bernard C. Schoenfeld
Sceneggiatura Virginia Kellogg



Eleanor Parker: Marie Allen
Agnes Moorehead: Ruth Benton
Ellen Corby: Emma Barber
Hope Emerson: Evelyn Harper
Betty Garde: Kitty Stark
Jan Sterling: Smoochie
Lee Patrick: Elvira Powell
Gertrude Hoffman: Georgia Harrison
Marjorie Crossland: Katie Cassidy



La diciannovenne Marie Allen รจ incarcerata dopo che un tentativo di rapina a mano armata da parte di suo marito fallisce tragicamente. Nel corso della visita medica prima dell'internamento, scopre di essere incinta di due mesi del suo defunto marito.



A naive nineteen year old widow becomes coarsened and cynical when she is sent to a woman's prison and is exposed to hardened criminals and sadistic guards.









General
Unique ID : 195223674902388946129581297962935901854 (0x92DEB64E771339468A86AD86D617DE9E)
Complete name : Prima Colpa - Caged (1950).h264.ita.eng.sub.ita-MIRCrew\Prima Colpa - Caged (1950).h264.ita.eng.sub.ita-MIRCrew.mkv
Format : Matroska
Format version : Version 2
File size : 1.09 GiB
Duration : 1h 32mn
Overall bit rate : 1 683 Kbps
Movie name : MIRCrew
Encoded date : UTC 2019-04-10T11:54:08Z
Writing application : mkvmerge v5.8.0 ('No Sleep / Pillow') built on Sep 2 2012 15:37:04
Writing library : Lavf55.12.0

Video
ID : 1
Format : AVC
Format/Info : Advanced Video Codec
Format profile : [email protected]
Format settings, CABAC : Yes
Format settings, ReFrames : 4 frames
Codec ID : V_MPEG4/ISO/AVC
Duration : 1h 32mn
Bit rate : 1 300 Kbps
Width : 720 pixels
Height : 544 pixels
Display aspect ratio : 4:3
Frame rate : 25.000 fps
Color space : YUV
Chroma subsampling : 4:2:0
Bit depth : 8 bits
Scan type : Progressive
Bits/(Pixel*Frame) : 0.133
Stream size : 838 MiB (75%)
Title : MIRCrew
Writing library : x264 core 142 r2479 dd79a61
Encoding settings : cabac=1 / ref=1 / deblock=1:-1:-1 / analyse=0x1:0x111 / me=hex / subme=2 / psy=1 / psy_rd=1.00:0.15 / mixed_ref=0 / me_range=16 / chroma_me=1 / trellis=0 / 8x8dct=0 / cqm=0 / deadzone=21,11 / fast_pskip=1 / chroma_qp_offset=0 / threads=9 / lookahead_threads=3 / sliced_threads=0 / nr=0 / decimate=1 / interlaced=0 / bluray_compat=0 / constrained_intra=0 / bframes=3 / b_pyramid=2 / b_adapt=1 / b_bias=0 / direct=1 / weightb=1 / open_gop=0 / weightp=1 / keyint=250 / keyint_min=25 / scenecut=40 / intra_refresh=0 / rc_lookahead=10 / rc=abr / mbtree=1 / bitrate=1300 / ratetol=1.0 / qcomp=0.60 / qpmin=0 / qpmax=69 / qpstep=4 / vbv_maxrate=50000 / vbv_bufsize=62500 / nal_hrd=none / filler=0 / ip_ratio=1.40 / aq=1:1.00
Language : Italian
Default : Yes
Forced : No
Color primaries : BT.470-6 System B, BT.470-6 System G, BT.601-6 625, BT.1358 625, BT.1700 625 PAL, BT.1700 625 SECAM
Transfer characteristics : BT.709-5, BT.1361
Matrix coefficients : BT.601-6 525, BT.1358 525, BT.1700 NTSC, SMPTE 170M

Audio #1
ID : 2
Format : AC-3
Format/Info : Audio Coding 3
Mode extension : CM (complete main)
Codec ID : A_AC3
Duration : 1h 32mn
Bit rate mode : Constant
Bit rate : 192 Kbps
Channel(s) : 2 channels
Channel positions : Front: L R
Sampling rate : 48.0 KHz
Bit depth : 16 bits
Compression mode : Lossy
Delay relative to video : -5ms
Stream size : 127 MiB (11%)
Title : Ita Ac3
Language : Italian
Default : Yes
Forced : No

Audio #2
ID : 3
Format : AC-3
Format/Info : Audio Coding 3
Mode extension : CM (complete main)
Codec ID : A_AC3
Duration : 1h 32mn
Bit rate mode : Constant
Bit rate : 192 Kbps
Channel(s) : 2 channels
Channel positions : Front: L R
Sampling rate : 48.0 KHz
Bit depth : 16 bits
Compression mode : Lossy
Delay relative to video : -5ms
Stream size : 127 MiB (11%)
Title : Eng Ac3
Language : English
Default : No
Forced : No

Menu
00:00:00.000 : :Chapter 1
00:07:44.080 : :Chapter 2
00:15:26.880 : :Chapter 3
00:23:10.080 : :Chapter 4
00:30:52.880 : :Chapter 5
00:38:36.080 : :Chapter 6
00:46:18.880 : :Chapter 7
00:54:02.080 : :Chapter 8
01:01:44.880 : :Chapter 9
01:09:28.080 : :Chapter 10
01:17:10.880 : :Chapter 11
01:24:54.080 : :Chapter 12





Files:

Prima Colpa - Caged (1950).h264.ita.eng.sub.ita-MIRCrew
  • Prima Colpa - Caged (1950).h264.ita.eng.sub.ita-MIRCrew.ita.idx (1.2 KB)
  • Prima Colpa - Caged (1950).h264.ita.eng.sub.ita-MIRCrew.ita.sub (72.0 KB)
  • Prima Colpa - Caged (1950).h264.ita.eng.sub.ita-MIRCrew.mkv (1.1 GB)

There are currently no comments. Feel free to leave one :)

Code:

  • udp://tracker.coppersurfer.tk:6969/announce
  • udp://tracker.torrent.eu.org:451/announce
  • udp://tracker.pirateparty.gr:6969/announce
  • udp://tracker.opentrackr.org:1337/announce
  • udp://tracker.leechers-paradise.org:6969/announce
  • udp://tracker.eddie4.nl:6969/announce
  • udp://shadowshq.yi.org:6969/announce
  • udp://shadowshq.eddie4.nl:6969/announce
  • udp://inferno.demonoid.pw:3391/announce
  • udp://eddie4.nl:6969/announce
  • udp://9.rarbg.to:2730/announce
  • udp://9.rarbg.com:2710/announce
  • udp://9.rarbg.me:2780/announce
  • udp://62.138.0.158:6969/announce
  • udp://151.80.120.114:2710/announce
DOWNLOAD Torrent
X
Attention! Use a VPN when Accessing Free Content !
Your IP address is - Country:
Your Internet provider Tracks your Activity! Hide your IP ADDRESS with a VPN!
Bonus: Get Lag-Free Streams & No popups with any VPN Purchased !

Download Here