Loading...

The Accidental Prime Minister 2019 x264 720p HD Esub Hindi GOPISA...

  • Category Movies
  • Type Bollywood
  • Language Hindi
  • Total size 596.1 MB
  • Uploaded By PENDUDESI
  • Downloads 645
  • Last checked 3 months ago
  • Date uploaded 3 months ago
  • Seeders 16
  • Leechers 3

The Accidental Prime Minister

HistoryDramaCrime

Anupam Kher is playing Dr Manmohan Singh in the film version of Sanjaya Baru's book The Accidental Prime Minister

Infohash : 749DF61DCE6D5BD777FC7C4A3E8756214737D32B

//www.gopisahi.xyz/



The Accidental Prime Minister 2019 x264 720p HD Esub Hindi GOPISAHI

Format : Matroska
Format version : Version 4 / Version 2
File size : 596 MiB
Duration : 1 h 44 min
Overall bit rate : 795 kb/s
Movie name : The Accidental Prime Minister 2019 GOPISAHI

Video
Format : AVC
Format/Info : Advanced Video Codec
Format profile : [email protected]
Codec ID : V_MPEG4/ISO/AVC
Duration : 1 h 44 min
Bit rate : 699 kb/s
Width : 1 280 pixels
Height : 546 pixels
Display aspect ratio : 2.35:1
Frame rate mode : Constant
Frame rate : 25.000 FPS
Color space : YUV
Chroma subsampling : 4:2:0
Bit depth : 8 bits
Scan type : Progressive
Bits/(Pixel*Frame) : 0.040
Stream size : 524 MiB (88%)
Title : GOPISAHI
Writing library : x264 core 157 r2935 545de2f

Audio
Format : AAC
Duration : 1 h 44 min
Bit rate : 93.6 kb/s
Channel(s) : 2 channels
Channel positions : Front: L R
Sampling rate : 48.0 kHz
Frame rate : 46.875 FPS (1024 SPF)
Compression mode : Lossy
Delay relative to video : -21 ms
Stream size : 70.2 MiB (12%)
Title : GOPISAHI
Language : Hindi

Text
Language : English





Files:

  • The Accidental Prime Minister 2019 x264 720p HD Esub Hindi GOPISAHI.mkv (596.1 MB)

There are currently no comments. Feel free to leave one :)

Code:

  • udp://tracker.open-internet.nl:6969/announce
  • udp://tracker.leechers-paradise.org:6969/announce
  • udp://exodus.desync.com:6969/announce
  • udp://tracker.internetwarriors.net:1337/announce
  • udp://tracker.opentrackr.org:1337/announce
  • udp://tracker.opentrackr.org:1337/announce
  • //tracker3.itzmx.com:6961/announce
  • //tracker1.itzmx.com:8080/announce
  • udp://open.demonii.si:1337/announce
  • udp://tracker.torrent.eu.org:451/announce
  • udp://tracker.cyberia.is:6969/announce
  • udp://denis.stalker.upeer.me:6969/announce
  • udp://bt.xxx-tracker.com:2710/announce
  • udp://tracker.tiny-vps.com:6969/announce
  • udp://thetracker.org:80/announce
  • udp://explodie.org:6969/announce
  • //open.acgnxtracker.com:80/announce
  • udp://explodie.org:6969/announce
  • udp://tracker.filepit.to:6969/announce
  • udp://torrentclub.tech:6969/announce
  • udp://retracker.netbynet.ru:2710/announce
  • udp://retracker.lanta-net.ru:2710/announce
  • udp://tracker4.itzmx.com:2710/announce
  • udp://tracker.supertracker.net:1337/announce
  • udp://tracker.iamhansen.xyz:2000/announce
  • udp://tracker.filemail.com:6969/announce
  • udp://retracker.baikal-telecom.net:2710/announce
  • //tracker4.itzmx.com:2710/announce
  • udp://tracker.trackton.ga:7070/announce
  • udp://tracker.dyn.im:6969/announce
  • //tracker.novg.net:6969/announce
  • //tracker.fastdownload.xyz:443/announce
  • //t.quic.ws:443/announce
  • //open.trackerlist.xyz:80/announce
  • //gwp2-v19.rinet.ru:80/announce
  • udp://tracker.uw0.xyz:6969/announce
  • udp://carapax.net:6969/announce
  • //opentracker.h4ck.me:6969/announce
  • //carapax.net:6969/announce
  • udp://tracker.tvunderground.org.ru:3218/announce
  • udp://retracker.maxnet.ua:80/announce
  • udp://retracker.akado-ural.ru:80/announce
  • //tracker.tvunderground.org.ru:3218/announce
  • udp://tracker.gbitt.info:80/announce
  • udp://bt.dy20188.com:80/announce
  • //tracker.gbitt.info:443/announce
  • //vps02.net.orel.ru:80/announce
  • //tracker.moxing.party:6969/announce
  • //tracker.gbitt.info:80/announce
  • //mail2.zelenaya.net:80/announce
  • //bt1.xxxxbt.cc:6969/announce
  • //t.nyaatracker.com:80/announce
  • udp://tracker.nyaa.uk:6969/announce
  • udp://tracker.moeking.me:6969/announce
  • udp://home.penza.com.ru:6969/announce
  • //tracker.vectahosting.eu:2053/announce
  • //tracker.parrotsec.org:443/announce
  • //tracker2.itzmx.com:6961/announce
  • //tracker.bz:80/announce
  • //tracker.bt4g.com:2095/announce
  • udp://chihaya.toss.li:9696/announce
  • //1337.abcvg.info:443/announce
  • //tracker.torrentyorg.pl:80/announce
  • //t.acg.rip:6699/announce
  • //share.camoe.cn:8080/announce
  • //bt-tracker.gamexp.ru:2710/announce
DOWNLOAD Torrent
X
Attention! Use a VPN when Accessing Free Content !
Your IP address is - Country:
Your Internet provider Tracks your Activity! Hide your IP ADDRESS with a VPN!
Bonus: Get Lag-Free Streams & No popups with any VPN Purchased !

Download Here