Loading...

Marvels.Agents.of.S.H.I.E.L.D.S06E03.1080p.WEB.H264-METCON

  • Category TV
  • Type HD
  • Language English
  • Total size 2.9 GB
  • Uploaded By Dakshvv
  • Downloads 1054
  • Last checked 2 months ago
  • Date uploaded 2 months ago
  • Seeders 204
  • Leechers 23
90%
May 25, 2019, 2:00 am

Marvel's Agents of S.H.I.E.L.D.

It's a wild night out on the planet of Kitson for the agents. While Fitz and Enoch try their luck at the casino, nearby, Daisy and Simmons find themselves in a much ... groovier situation.

Infohash : 2BB2E8BE70B4309C4BDA9C5D62FCD73D6CA27FBA




Code:


Video
ID : 1
Format : AVC
Format/Info : Advanced Video Codec
Format profile : [email protected]
Format settings : CABAC / 4 Ref Frames
Format settings, CABAC : Yes
Format settings, ReFrames : 4 frames
Codec ID : V_MPEG4/ISO/AVC
Duration : 43 min 1 s
Bit rate mode : Constant
Bit rate : 8 955 kb/s
Nominal bit rate : 10 000 kb/s
Width : 1 920 pixels
Height : 1 080 pixels
Display aspect ratio : 16:9
Frame rate mode : Constant
Frame rate : 23.976 (24000/1001) FPS
Color space : YUV
Chroma subsampling : 4:2:0
Bit depth : 8 bits
Scan type : Progressive
Bits/(Pixel*Frame) : 0.180
Stream size : 2.69 GiB (93%)
Language : English
Default : Yes
Forced : No
Color range : Limited
Color primaries : BT.709
Transfer characteristics : BT.709
Matrix coefficients : BT.709

Audio
ID : 2
Format : E-AC-3
Format/Info : Enhanced AC-3
Commercial name : Dolby Digital Plus
Codec ID : A_EAC3
Duration : 43 min 1 s
Bit rate mode : Constant
Bit rate : 640 kb/s
Channel(s) : 6 channels
Channel layout : L R C LFE Ls Rs
Sampling rate : 48.0 kHz
Frame rate : 31.250 FPS (1536 SPF)
Compression mode : Lossy
Stream size : 197 MiB (7%)
Language : English
Service kind : Complete Main
Default : Yes
Forced : No

Text
ID : 3
Format : UTF-8
Codec ID : S_TEXT/UTF8
Codec ID/Info : UTF-8 Plain Text
Duration : 42 min 18 s
Bit rate : 72 b/s
Count of elements : 966
Stream size : 22.4 KiB (0%)
Title : English
Language : English
Default : No
Forced : No



Files:

Marvels.Agents.of.S.H.I.E.L.D.S06E03.1080p.WEB.H264-METCON[rarbg]
  • Marvels.Agents.of.S.H.I.E.L.D.S06E03.1080p.WEB.H264-METCON.mkv (2.9 GB)
  • RARBG.txt (0.0 KB)
  • RARBG_DO_NOT_MIRROR.exe (0.1 KB)
  • marvels.agents.of.s.h.i.e.l.d.s06e03.1080p.web.h264-metcon.nfo (0.4 KB)

There are currently no comments. Feel free to leave one :)

Code:

  • //tracker.trackerfix.com:80/announce
  • udp://9.rarbg.me:2720/announce
  • udp://9.rarbg.to:2710/announce
cdn
DOWNLOAD Torrent
X
Attention! Use a VPN when Accessing Free Content !
Your IP address is - Country:
Your Internet provider Tracks your Activity! Hide your IP ADDRESS with a VPN!
Bonus: Get Lag-Free Streams & No popups with any VPN Purchased !

Download Here