Loading...

Dragon.Ball.Super.The.Movie.Broly.2018.MANGA.UK.DUAL.AUDiO.1080p....

  • Category Anime
  • Type Dual Audio
  • Language English
  • Total size 29.1 GB
  • Uploaded By EroRambos
  • Downloads 51
  • Last checked 3 weeks ago
  • Date uploaded 3 weeks ago
  • Seeders 6
  • Leechers 20

Infohash : B20B7AA887CEBF3AA41908475839D540CAEDF3CE



REMUX = video and audio untouched, menu and extras deleted

Source…: BluRay (MangaUK) thx to enibba
Codec…: AVC 1080p
Resolution…: 1920 x 1080p
Bitrate…: 32.0 Mb/s
Framerate…: 23.976 FPS
Audio 1…: English PCM 2.0 (2 304 kb/s)
Audio 2…: English DTS-HD Master Audio 5.1 (3 537 kb/s)
Audio 3… : Japanese PCM 2.0 (2 304 kb/s)
Audio 4… : Japanese DTS-HD Master Audio 5.1 (3 917 kb/s)
Subtitles…: English PGS
Time…: 1h 39h 48s
Size…: 29.1 GB

MEDIAINFO:

Video
ID : 1
Format : AVC
Format/Info : Advanced Video Codec
Format profile : [email protected]
Format settings : CABAC / 4 Ref Frames
Format settings, CABAC : Yes
Format settings, ReFrames : 4 frames
Codec ID : V_MPEG4/ISO/AVC
Duration : 1 h 39 min
Bit rate mode : Variable
Bit rate : 29.6 Mb/s
Maximum bit rate : 32.0 Mb/s
Width : 1 920 pixels
Height : 1 080 pixels
Display aspect ratio : 16:9
Frame rate mode : Constant
Frame rate : 23.976 (24000/1001) FPS
Color space : YUV
Chroma subsampling : 4:2:0
Bit depth : 8 bits
Scan type : Progressive
Bits/(Pixel*Frame) : 0.596
Stream size : 20.7 GiB (71%)
Title : Dragon Ball Super Movie 1: Broly by SeBoLeX
Default : Yes
Forced : No

Audio #1
ID : 2
Format : PCM
Format settings : Little / Signed
Codec ID : A_PCM/INT/LIT
Duration : 1 h 39 min
Bit rate mode : Constant
Bit rate : 2 304 kb/s
Channel(s) : 2 channels
Sampling rate : 48.0 kHz
Frame rate : 32.000 FPS (1500 SPF)
Bit depth : 24 bits
Stream size : 1.61 GiB (6%)
Title : PCM 2.0
Language : English
Default : No
Forced : No

Audio #2
ID : 3
Format : DTS XLL
Format/Info : Digital Theater Systems
Commercial name : DTS-HD Master Audio
Codec ID : A_DTS
Duration : 1 h 39 min
Bit rate mode : Variable
Bit rate : 3 537 kb/s
Channel(s) : 6 channels
Channel layout : C L R Ls Rs LFE
Sampling rate : 48.0 kHz
Frame rate : 93.750 FPS (512 SPF)
Bit depth : 24 bits
Compression mode : Lossless
Stream size : 2.47 GiB (8%)
Title : DTS-HD MA 5.1
Language : English
Default : No
Forced : No

Audio #3
ID : 4
Format : PCM
Format settings : Little / Signed
Codec ID : A_PCM/INT/LIT
Duration : 1 h 39 min
Bit rate mode : Constant
Bit rate : 2 304 kb/s
Channel(s) : 2 channels
Sampling rate : 48.0 kHz
Frame rate : 32.000 FPS (1500 SPF)
Bit depth : 24 bits
Stream size : 1.61 GiB (6%)
Title : PCM 2.0
Language : Japanese
Default : No
Forced : No

Audio #4
ID : 5
Format : DTS XLL
Format/Info : Digital Theater Systems
Commercial name : DTS-HD Master Audio
Codec ID : A_DTS
Duration : 1 h 39 min
Bit rate mode : Variable
Bit rate : 3 917 kb/s
Channel(s) : 6 channels
Channel layout : C L R Ls Rs LFE
Sampling rate : 48.0 kHz
Frame rate : 93.750 FPS (512 SPF)
Bit depth : 24 bits
Compression mode : Lossless
Stream size : 2.73 GiB (9%)
Title : DTS-HD MA 5.1
Language : Japanese
Default : Yes
Forced : No

Text #1
ID : 6
Format : PGS
Muxing mode : zlib
Codec ID : S_HDMV/PGS
Codec ID/Info : Picture based subtitle format used on BDs/HD-DVDs
Duration : 1 h 35 min
Bit rate : 38.1 kb/s
Count of elements : 2390
Stream size : 26.0 MiB (0%)
Language : English
Default : No
Forced : No

Text #2
ID : 7
Format : PGS
Muxing mode : zlib
Codec ID : S_HDMV/PGS
Codec ID/Info : Picture based subtitle format used on BDs/HD-DVDs
Duration : 1 h 35 min
Bit rate : 27.8 kb/s
Count of elements : 1988
Stream size : 18.9 MiB (0%)
Language : English
Default : No
Forced : No

Text #3
ID : 8
Format : PGS
Muxing mode : zlib
Codec ID : S_HDMV/PGS
Codec ID/Info : Picture based subtitle format used on BDs/HD-DVDs
Duration : 1 h 31 min
Bit rate : 96 b/s
Count of elements : 12
Stream size : 64.4 KiB (0%)
Language : English
Default : No
Forced : No

Files:

  • Dragon.Ball.Super.The.Movie.Broly.2018.MANGA.UK.DUAL.AUDiO.1080p.BluRay.REMUX.AVC.DTS-HD.MA.5.1-SBLX.mkv (29.1 GB)

There are currently no comments. Feel free to leave one :)

Code:

  • //nyaa.tracker.wf:7777/announce
  • udp://open.stealth.si:80/announce
  • udp://tracker.opentrackr.org:1337/announce
  • udp://tracker.coppersurfer.tk:6969/announce
  • udp://exodus.desync.com:6969/announce
DOWNLOAD Torrent