Loading...

The Accidental Prime Minister 2019 1080p WEBRip hindi x264 AAC.-....

  • Category Movies
  • Type Bollywood
  • Language Hindi
  • Total size 1.7 GB
  • Uploaded By LHDmovies
  • Downloads 1427
  • Last checked 2 weeks ago
  • Date uploaded 3 weeks ago
  • Seeders 27
  • Leechers 3

The Accidental Prime Minister

HistoryDramaCrime

Anupam Kher is playing Dr Manmohan Singh in the film version of Sanjaya Baru's book The Accidental Prime Minister

Infohash : 3958CDF8DAE37D9112A31567F950C352DC7816A1





//latesthdmovies.club/the-accidental-prime-minister-2019-webrip/


No Website Tag No Watermark



General
Complete name : C:\Users\Administrator\Downloads\[LatestHDmovies.Club]-The Accidental Prime Minister 2019 [WEBRip] [1080p].mp4
Format : MPEG-4
Format profile : Base Media / Version 2
Codec ID : mp42 (isom/iso2/avc1/mp41)
File size : 1.66 GiB
Duration : 1 h 44 min
Overall bit rate : 2 267 kb/s
Movie name : LatestHDmovies.Club
Encoded date : UTC 2019-05-24 18:01:09
Tagged date : UTC 2019-05-24 18:01:09
Writing application : HandBrake 1.2.1 2019021700

Video
ID : 1
Format : AVC
Format/Info : Advanced Video Codec
Format profile : [email protected]
Format settings : CABAC / 4 Ref Frames
Format settings, CABAC : Yes
Format settings, ReFrames : 4 frames
Codec ID : avc1
Codec ID/Info : Advanced Video Coding
Duration : 1 h 44 min
Bit rate : 2 105 kb/s
Width : 1 920 pixels
Height : 804 pixels
Display aspect ratio : 2.40:1
Frame rate mode : Constant
Frame rate : 25.000 FPS
Color space : YUV
Chroma subsampling : 4:2:0
Bit depth : 8 bits
Scan type : Progressive
Bits/(Pixel*Frame) : 0.055
Stream size : 1.54 GiB (93%)
Writing library : x264 core 157 r2935 545de2f
Encoding settings : cabac=1 / ref=2 / deblock=1:0:0 / analyse=0x1:0x111 / me=hex / subme=6 / psy=1 / psy_rd=1.00:0.00 / mixed_ref=1 / me_range=16 / chroma_me=1 / trellis=1 / 8x8dct=0 / cqm=0 / deadzone=21,11 / fast_pskip=1 / chroma_qp_offset=-2 / threads=3 / lookahead_threads=1 / sliced_threads=0 / nr=0 / decimate=1 / interlaced=0 / bluray_compat=0 / constrained_intra=0 / bframes=3 / b_pyramid=2 / b_adapt=1 / b_bias=0 / direct=1 / weightb=1 / open_gop=0 / weightp=1 / keyint=250 / keyint_min=25 / scenecut=40 / intra_refresh=0 / rc_lookahead=30 / rc=2pass / mbtree=1 / bitrate=2105 / ratetol=1.0 / qcomp=0.60 / qpmin=0 / qpmax=69 / qpstep=4 / cplxblur=20.0 / qblur=0.5 / vbv_maxrate=20000 / vbv_bufsize=25000 / nal_hrd=none / filler=0 / ip_ratio=1.40 / aq=1:1.00
Encoded date : UTC 2019-05-24 18:01:09
Tagged date : UTC 2019-05-24 18:01:09
Color range : Limited
Color primaries : BT.709
Transfer characteristics : BT.709
Matrix coefficients : BT.709
Codec configuration box : avcC

Audio
ID : 2
Format : AAC LC
Format/Info : Advanced Audio Codec Low Complexity
Codec ID : mp4a-40-2
Duration : 1 h 44 min
Bit rate mode : Constant
Bit rate : 156 kb/s
Channel(s) : 2 channels
Channel layout : L R
Sampling rate : 48.0 kHz
Frame rate : 46.875 FPS (1024 SPF)
Compression mode : Lossy
Stream size : 117 MiB (7%)
Title : Stereo
Default : Yes
Alternate group : 1
Encoded date : UTC 2019-05-24 18:01:09
Tagged date : UTC 2019-05-24 18:01:09





Files:

  • [LatestHDmovies.Club]-The Accidental Prime Minister 2019 [WEBRip] [1080p].mp4 (1.7 GB)

There are currently no comments. Feel free to leave one :)

Code:

  • udp://tracker.pirateparty.gr:6969/announce
  • udp://tracker.tiny-vps.com:6969/announce
  • udp://open.stealth.si:80/announce
  • udp://tracker.opentrackr.org:1337/announce
  • udp://tracker.internetwarriors.net:1337/announce
  • udp://9.rarbg.to:2710/announce
  • //tracker.torrentyorg.pl:80/announce
  • udp://9.rarbg.me:2740/announce
  • udp://thetracker.org:80/announce
  • udp://tracker.coppersurfer.tk:6969/announce
  • //tracker.fastdownload.xyz:443/announce
  • udp://torrentclub.tech:6969/announce
  • udp://open.demonii.si:1337/announce
  • //vps02.net.orel.ru:80/announce
  • udp://ipv4.tracker.harry.lu:80/announce
DOWNLOAD Torrent