Loading...

The Accidental Prime Minister 2019 720p WEBRip Hindi x264 AAC.-.L...

  • Category Movies
  • Type Bollywood
  • Language Hindi
  • Total size 918.0 MB
  • Uploaded By LHDmovies
  • Downloads 2176
  • Last checked 4 weeks ago
  • Date uploaded 1 month ago
  • Seeders 29
  • Leechers 6

The Accidental Prime Minister

HistoryDramaCrime

Anupam Kher is playing Dr Manmohan Singh in the film version of Sanjaya Baru's book The Accidental Prime Minister

Infohash : 38B1F80C2B548FAFD45660BAB6816E8BBEF57B73





//latesthdmovies.club/the-accidental-prime-minister-2019-webrip/


No Website Tag No Watermark


General
Complete name               : C:\Users\Administrator\Downloads\Video\[LatestHDmovies.Club]-The Accidental Prime Minister 2019 [WEBRip] [720p].mp4
Format                      : MPEG-4
Format profile              : Base Media
Codec ID                    : isom (isom/iso2/avc1/mp41)
File size                   : 918 MiB
Duration                    : 1 h 44 min
Overall bit rate            : 1 224 kb/s
Movie name                  : LatestHDmovies.Club
Writing application         : Lavf58.27.102

Video
ID                          : 1
Format                      : AVC
Format/Info                 : Advanced Video Codec
Format profile              : [email protected]
Format settings             : CABAC / 4 Ref Frames
Format settings, CABAC      : Yes
Format settings, ReFrames   : 4 frames
Codec ID                    : avc1
Codec ID/Info               : Advanced Video Coding
Duration                    : 1 h 44 min
Bit rate                    : 1 089 kb/s
Width                       : 1 280 pixels
Height                      : 538 pixels
Display aspect ratio        : 2.40:1
Original display aspect rat : 2.40:1
Frame rate mode             : Constant
Frame rate                  : 25.000 FPS
Color space                 : YUV
Chroma subsampling          : 4:2:0
Bit depth                   : 8 bits
Scan type                   : Progressive
Bits/(Pixel*Frame)          : 0.063
Stream size                 : 817 MiB (89%)
Writing library             : x264 core 157
Encoding settings           : cabac=1 / ref=1 / deblock=1:0:0 / analyse=0x3:0x3 / me=dia / subme=1 / psy=1 / psy_rd=1.00:0.00 / mixed_ref=0 / me_range=16 / chroma_me=1 / trellis=0 / 8x8dct=1 / cqm=0 / deadzone=21,11 / fast_pskip=1 / chroma_qp_offset=0 / threads=17 / lookahead_threads=2 / sliced_threads=0 / nr=0 / decimate=1 / interlaced=0 / bluray_compat=0 / constrained_intra=0 / bframes=3 / b_pyramid=2 / b_adapt=1 / b_bias=0 / direct=1 / weightb=1 / open_gop=0 / weightp=1 / keyint=250 / keyint_min=25 / scenecut=40 / intra_refresh=0 / rc=abr / mbtree=0 / bitrate=1089 / ratetol=1.0 / qcomp=0.60 / qpmin=0 / qpmax=69 / qpstep=4 / ip_ratio=1.40 / pb_ratio=1.30 / aq=1:1.00
Codec configuration box     : avcC

Audio
ID                          : 2
Format                      : AAC LC
Format/Info                 : Advanced Audio Codec Low Complexity
Codec ID                    : mp4a-40-2
Duration                    : 1 h 44 min
Duration_LastFrame          : -16 ms
Bit rate mode               : Constant
Bit rate                    : 128 kb/s
Channel(s)                  : 2 channels
Channel layout              : L R
Sampling rate               : 44.1 kHz
Frame rate                  : 43.066 FPS (1024 SPF)
Compression mode            : Lossy
Stream size                 : 96.0 MiB (10%)
Default                     : Yes
Alternate group             : 1









Files:

  • [LatestHDmovies.Club]-The Accidental Prime Minister 2019 [WEBRip] [720p].mp4 (918.0 MB)

There are currently no comments. Feel free to leave one :)

Code:

  • udp://tracker.pirateparty.gr:6969/announce
  • udp://tracker.tiny-vps.com:6969/announce
  • udp://open.stealth.si:80/announce
  • udp://tracker.opentrackr.org:1337/announce
  • udp://tracker.internetwarriors.net:1337/announce
  • udp://9.rarbg.to:2710/announce
  • //tracker.torrentyorg.pl:80/announce
  • udp://9.rarbg.me:2740/announce
  • udp://thetracker.org:80/announce
  • udp://tracker.coppersurfer.tk:6969/announce
  • //tracker.fastdownload.xyz:443/announce
  • udp://torrentclub.tech:6969/announce
  • udp://open.demonii.si:1337/announce
  • //vps02.net.orel.ru:80/announce
  • udp://ipv4.tracker.harry.lu:80/announce
DOWNLOAD Torrent