Loading...

The Kid (2019).720p.H264.italian.english.Ac3-5.1.sub.ita-MIRCrew

  • Category Movies
  • Type HD
  • Language English
  • Total size 1.9 GB
  • Uploaded By robbyrs
  • Downloads 592
  • Last checked 2 months ago
  • Date uploaded 2 months ago
  • Seeders 131
  • Leechers 17

The Karate Kid

ActionAdventureComedyDramaFamily

Hassled by the school bullies, Daniel LaRusso has his share of adolescent woes. Luckily, his apartment building houses a resident martial arts master: Kesuke Miyagi, who agrees to train Daniel ... and ends up teaching him much more than self-defense. Armed with newfound confidence, skill and wisdom, Daniel ultimately faces off against his tormentors in this hugely popular classic underdog tale.

Infohash : D4468EBF93D1874654D8CD4EC3CE45372E473459

The Kid (2019).720p.H264.italian.english.Ac3-5.1.sub.ita-MIRCrew


NO FOUND ONLY ORIGINAL RELEASE

My release is always in double track audio italian and Original audio
for select it use VLC or dvd player home
not use wmp

The Kid (2019)

Quality MIRCrew on HD 720p da 1,9 gb









Lingua originale inglese
Paese di produzione Stati Uniti d'America
Anno 2019
Durata 100 min
Genere western, drammatico, biografico, azione, storico
Regia Vincent D'Onofrio
Sceneggiatura Andrew Lanham



Ethan Hawke: Pat Garrett
Dane DeHaan: Billy the Kid
Jake Schur: Rio
Chris Pratt: Grant Cutler
Vincent D'Onofrio: sceriffo Romero
Leila George: Sara
Adam Baldwin: Bob Orlinger
Keith Jardine: Pete
Tait Fletcher: Bill Cutler



Rio รจ un ragazzino che si mette in contatto con il fuorilegge Billy the Kid, considerato da lui un eroe, per cercare di convincerlo a ritrovare la sorella appena rapita dallo zio. Tuttavia, il giovane Rio scopre che le sue idee romantiche sui fuorilegge sono false. E trova un vero eroe nello sceriffo Pat Garrett.



The story of a young boy who witnesses Billy the Kid's encounter with Sheriff Pat Garrett.







General
Unique ID : 248253347097759346399912324155111673960 (0xBAC3DB01D9D7F8A7A97491F0098C9068)
Complete name : The Kid (2019).720p.h264.ita.eng.sub.ita-MIRCrew\The Kid (2019).720p.h264.ita.eng.sub.ita-MIRCrew.mkv
Format : Matroska
Format version : Version 2
File size : 1.94 GiB
Duration : 1h 39mn
Overall bit rate : 2 784 Kbps
Movie name : MIRCrew
Encoded date : UTC 2019-05-25T06:58:21Z
Writing application : mkvmerge v5.8.0 ('No Sleep / Pillow') built on Sep 2 2012 15:37:04
Writing library : Lavf55.12.0

Video
ID : 1
Format : AVC
Format/Info : Advanced Video Codec
Format profile : [email protected]
Format settings, CABAC : Yes
Format settings, ReFrames : 4 frames
Codec ID : V_MPEG4/ISO/AVC
Duration : 1h 39mn
Bit rate : 1 900 Kbps
Width : 1 280 pixels
Height : 544 pixels
Display aspect ratio : 2.35:1
Frame rate : 23.976 fps
Color space : YUV
Chroma subsampling : 4:2:0
Bit depth : 8 bits
Scan type : Progressive
Bits/(Pixel*Frame) : 0.114
Stream size : 1.28 GiB (66%)
Title : MIRCrew
Writing library : x264 core 142 r2479 dd79a61
Encoding settings : cabac=1 / ref=1 / deblock=1:0:0 / analyse=0x1:0x111 / me=hex / subme=2 / psy=1 / psy_rd=1.00:0.00 / mixed_ref=0 / me_range=16 / chroma_me=1 / trellis=0 / 8x8dct=0 / cqm=0 / deadzone=21,11 / fast_pskip=1 / chroma_qp_offset=0 / threads=9 / lookahead_threads=3 / sliced_threads=0 / nr=0 / decimate=1 / interlaced=0 / bluray_compat=0 / constrained_intra=0 / bframes=3 / b_pyramid=2 / b_adapt=1 / b_bias=0 / direct=1 / weightb=1 / open_gop=0 / weightp=1 / keyint=240 / keyint_min=24 / scenecut=40 / intra_refresh=0 / rc_lookahead=10 / rc=abr / mbtree=1 / bitrate=1900 / ratetol=1.0 / qcomp=0.60 / qpmin=0 / qpmax=69 / qpstep=4 / vbv_maxrate=50000 / vbv_bufsize=62500 / nal_hrd=none / filler=0 / ip_ratio=1.40 / aq=1:1.00
Language : Italian
Default : Yes
Forced : No
Color primaries : BT.709-5, BT.1361, IEC 61966-2-4, SMPTE RP177
Transfer characteristics : BT.709-5, BT.1361
Matrix coefficients : BT.709-5, BT.1361, IEC 61966-2-4 709, SMPTE RP177

Audio #1
ID : 2
Format : AC-3
Format/Info : Audio Coding 3
Mode extension : CM (complete main)
Codec ID : A_AC3
Duration : 1h 39mn
Bit rate mode : Constant
Bit rate : 448 Kbps
Channel(s) : 6 channels
Channel positions : Front: L C R, Side: L R, LFE
Sampling rate : 48.0 KHz
Bit depth : 16 bits
Compression mode : Lossy
Delay relative to video : -5ms
Stream size : 320 MiB (16%)
Title : Ita Ac3 5.1
Language : Italian
Default : Yes
Forced : No

Audio #2
ID : 3
Format : AC-3
Format/Info : Audio Coding 3
Mode extension : CM (complete main)
Codec ID : A_AC3
Duration : 1h 39mn
Bit rate mode : Constant
Bit rate : 448 Kbps
Channel(s) : 6 channels
Channel positions : Front: L C R, Side: L R, LFE
Sampling rate : 48.0 KHz
Bit depth : 16 bits
Compression mode : Lossy
Delay relative to video : -5ms
Stream size : 320 MiB (16%)
Title : Eng Ac3 5.1
Language : English
Default : No
Forced : No




Files:

The Kid (2019).720p.h264.ita.eng.sub.ita-MIRCrew
  • The Kid (2019).720p.h264.ita.eng.sub.ita-MIRCrew.mkv (1.9 GB)
  • The Kid (2019).720p.h264.ita.eng.sub.ita-MIRCrew.srt (70.9 KB)

There are currently no comments. Feel free to leave one :)

Code:

  • udp://tracker.coppersurfer.tk:6969/announce
  • udp://tracker.torrent.eu.org:451/announce
  • udp://tracker.pirateparty.gr:6969/announce
  • udp://tracker.opentrackr.org:1337/announce
  • udp://tracker.leechers-paradise.org:6969/announce
  • udp://tracker.eddie4.nl:6969/announce
  • udp://shadowshq.yi.org:6969/announce
  • udp://shadowshq.eddie4.nl:6969/announce
  • udp://inferno.demonoid.pw:3391/announce
  • udp://eddie4.nl:6969/announce
  • udp://9.rarbg.to:2730/announce
  • udp://9.rarbg.com:2710/announce
  • udp://9.rarbg.me:2780/announce
  • udp://62.138.0.158:6969/announce
  • udp://151.80.120.114:2710/announce
cdn
DOWNLOAD Torrent
X
Attention! Use a VPN when Accessing Free Content !
Your IP address is - Country:
Your Internet provider Tracks your Activity! Hide your IP ADDRESS with a VPN!
Bonus: Get Lag-Free Streams & No popups with any VPN Purchased !

Download Here