Loading...

Jamestown.S03E05.HDTV.x264-TVC

  • Category TV
  • Type SD
  • Language English
  • Total size 1.6 GB
  • Uploaded By RaffeyG
  • Downloads 69
  • Last checked 2 weeks ago
  • Date uploaded 3 weeks ago
  • Seeders 3
  • Leechers 0

Infohash : CDBCF944168EC3454BB0C4AAB487B7CBCDA72524



SERIES INFO
Genre : Drama
Stars : Naomi Battrick, Gwilym Lee, Claire Cox, Stuart Martin, Luke Roskell, Sophie Rundle, Matt Stokoe, Niamh Walsh, Roseanne Supernault, Kalani Queypo
Series Plot : Set in 1619, “Jamestown” follows the first English settlers as they establish a community in the New World. Amongst those landing onshore are a group of women destined to be married to the men of Jamestown, including three spirited women from England.

-----------------------------------------------------------------------------------

Complete name : Jamestown.S03E05.HDTV.x264-TVC.mkv
Format : Matroska
Format version : Version 4
File size : 1.58 GiB
Duration : 44 min 15 s
Overall bit rate : 5 107 kb/s
Movie name : Jamestown S03E05
Encoded date : UTC 2019-05-25 13:18:48
Writing application : mkvmerge v33.1.0 ('Primrose') 64-bit
Writing library : libebml v1.3.7 + libmatroska v1.5.0

Video
ID : 1
Format : AVC
Format/Info : Advanced Video Codec
Format profile : [email protected]
Format settings : CABAC / 8 Ref Frames
Format settings, CABAC : Yes
Format settings, RefFrames : 8 frames
Codec ID : V_MPEG4/ISO/AVC
Duration : 44 min 15 s
Bit rate : 4 528 kb/s
Width : 1 920 pixels
Height : 1 080 pixels
Display aspect ratio : 16:9
Frame rate mode : Constant
Frame rate : 25.000 FPS
Color space : YUV
Chroma subsampling : 4:2:0
Bit depth : 8 bits
Scan type : Progressive
Bits/(Pixel*Frame) : 0.087
Stream size : 1.40 GiB (89%)
Writing library : x264 core 157 r2932 303c484
Encoding settings : cabac=1 / ref=8 / deblock=1:-1:-1 / analyse=0x3:0x133 / me=umh / subme=9 / psy=1 / psy_rd=1.00:0.15 / mixed_ref=1 / me_range=9 / chroma_me=1 / trellis=2 / 8x8dct=1 / cqm=0 / deadzone=21,11 / fast_pskip=1 / chroma_qp_offset=-3 / threads=34 / lookahead_threads=3 / sliced_threads=0 / nr=0 / decimate=1 / interlaced=0 / bluray_compat=0 / constrained_intra=0 / bframes=6 / b_pyramid=2 / b_adapt=2 / b_bias=0 / direct=3 / weightb=1 / open_gop=0 / weightp=2 / keyint=250 / keyint_min=25 / scenecut=40 / intra_refresh=0 / rc_lookahead=60 / rc=crf / mbtree=1 / crf=18.0 / qcomp=0.60 / qpmin=0 / qpmax=69 / qpstep=4 / ip_ratio=1.40 / aq=1:1.00
Language : English
Default : Yes
Forced : No
Color range : Limited
Color primaries : BT.709
Transfer characteristics : BT.709
Matrix coefficients : BT.709

Audio #1
ID : 2
Format : AC-3
Format/Info : Audio Coding 3
Commercial name : Dolby Digital
Codec ID : A_AC3
Duration : 44 min 15 s
Bit rate mode : Constant
Bit rate : 384 kb/s
Channel(s) : 6 channels
Channel layout : L R C LFE Ls Rs
Sampling rate : 48.0 kHz
Frame rate : 31.250 FPS (1536 SPF)
Bit depth : 16 bits
Compression mode : Lossy
Stream size : 122 MiB (8%)
Language : English
Service kind : Complete Main
Default : Yes
Forced : No

Files:

  • Jamestown.S03E05.HDTV.x264-TVC.mkv (1.6 GB)

There are currently no comments. Feel free to leave one :)

Code:

  • udp://tracker.leechers-paradise.org:6969/announce
  • udp://tracker.coppersurfer.tk:6969/announce
  • udp://tracker.opentrackr.org:1337/announce
  • udp://tracker.zer0day.to:1337/announce
  • udp://eddie4.nl:6969/announce
DOWNLOAD Torrent