Loading...

The 100 S06E04 The Face Behind the Glass 1080p AMZN WEBRip x265 D...

  • Category TV
  • Type HEVC/x265
  • Language English
  • Total size 1.9 GB
  • Uploaded By D0ct0rLew
  • Downloads 408
  • Last checked 2 weeks ago
  • Date uploaded 3 weeks ago
  • Seeders 21
  • Leechers 0
70%
May 22, 2019, 3:00 am

The 100

Clarke embraces the traditions of Sanctum and tries to make amends for her past actions.

Infohash : D0B7FC69095D0EEA758D8BFCF24A4A77AF23EAEA





Media Information



Unique ID : 204585793152378728235826037775204774365 (0x99E9CA5FB467A6B383BC0EDA5BEE71DD)
Complete name : The 100 S06E04 The Face Behind the Glass 1080p AMZN WEBRip x265 DDP 5.1 D0ct0rLew[SEV].mkv
Format : Matroska
Format version : Version 4
File size : 1.91 GiB
Duration : 42 min 10 s
Overall bit rate : 6 478 kb/s
Movie name : The 100 06x04 (The Face Behind the Glass) - release by messafan for CasStudio
Encoded date : UTC 2019-05-25 12:51:44
Writing application : mkvmerge v29.0.0 ('Like It Or Not') 64-bit
Writing library : libebml v1.3.6 + libmatroska v1.4.9

Video
ID : 2
Format : HEVC
Format/Info : High Efficiency Video Coding
Format profile : Main [email protected]@Main
Codec ID : V_MPEGH/ISO/HEVC
Duration : 42 min 10 s
Bit rate : 5 836 kb/s
Width : 1 920 pixels
Height : 1 080 pixels
Display aspect ratio : 16:9
Frame rate mode : Constant
Frame rate : 23.976 (24000/1001) FPS
Color space : YUV
Chroma subsampling : 4:2:0
Bit depth : 10 bits
Bits/(Pixel*Frame) : 0.117
Stream size : 1.72 GiB (90%)
Writing library : x265 3.0_Au+14-c7e5878bdd31:[Windows][MSVC 1920][64 bit] 10bit
Encoding settings : cpuid=1111039 / frame-threads=3 / numa-pools=8 / wpp / no-pmode / no-pme / no-psnr / no-ssim / log-level=2 / input-csp=1 / input-res=1920x1080 / interlace=0 / total-frames=60660 / level-idc=0 / high-tier=1 / uhd-bd=0 / ref=4 / no-allow-non-conformance / no-repeat-headers / annexb / no-aud / no-hrd / info / hash=0 / no-temporal-layers / open-gop / min-keyint=23 / keyint=250 / gop-lookahead=0 / bframes=8 / b-adapt=2 / b-pyramid / bframe-bias=0 / rc-lookahead=90 / lookahead-slices=4 / scenecut=40 / radl=0 / no-splice / no-intra-refresh / ctu=64 / min-cu-size=8 / rect / amp / max-tu-size=32 / tu-inter-depth=2 / tu-intra-depth=2 / limit-tu=0 / rdoq-level=2 / dynamic-rd=0.00 / no-ssim-rd / signhide / no-tskip / nr-intra=0 / nr-inter=0 / no-constrained-intra / strong-intra-smoothing / max-merge=3 / limit-refs=3 / limit-modes / me=3 / subme=7 / merange=92 / temporal-mvp / weightp / no-weightb / no-analyze-src-pics / deblock=3:3 / sao / no-sao-non-deblock / rd=4 / no-early-skip / rskip / no-fast-intra / no-tskip-fast / no-cu-lossless / no-b-intra / no-splitrd-skip / rdpenalty=0 / psy-rd=0.90 / psy-rdoq=1.00 / no-rd-refine / no-lossless / cbqpoffs=0 / crqpoffs=0 / rc=crf / crf=20.5 / qcomp=0.60 / qpstep=4 / stats-write=0 / stats-read=0 / ipratio=1.40 / pbratio=1.30 / aq-mode=3 / aq-strength=1.00 / cutree / zone-count=0 / no-strict-cbr / qg-size=32 / no-rc-grain / qpmax=69 / qpmin=0 / no-const-vbv / sar=0 / overscan=0 / videoformat=5 / range=0 / colorprim=2 / transfer=2 / colormatrix=2 / chromaloc=0 / display-window=0 / max-cll=0,0 / min-luma=0 / max-luma=1023 / log2-max-poc-lsb=8 / vui-timing-info / vui-hrd-info / slices=1 / no-opt-qp-pps / no-opt-ref-list-length-pps / no-multi-pass-opt-rps / scenecut-bias=0.05 / no-opt-cu-delta-qp / no-aq-motion / no-hdr / no-hdr-opt / no-dhdr10-opt / no-idr-recovery-sei / analysis-reuse-level=5 / scale-factor=0 / refine-intra=0 / refine-inter=0 / refine-mv=0 / refine-ctu-distortion=0 / no-limit-sao / ctu-info=0 / no-lowpass-dct / refine-analysis-type=0 / copy-pic=1 / max-ausize-factor=1.0 / no-dynamic-refine / no-single-sei / no-hevc-aq / no-svt / qp-adaptation-range=1.00
Default : Yes
Forced : No

Audio
ID : 3
Format : E-AC-3
Format/Info : Enhanced AC-3
Commercial name : Dolby Digital Plus
Codec ID : A_EAC3
Duration : 42 min 10 s
Bit rate mode : Constant
Bit rate : 640 kb/s
Channel(s) : 6 channels
Channel layout : L R C LFE Ls Rs
Sampling rate : 48.0 kHz
Frame rate : 31.250 FPS (1536 SPF)
Compression mode : Lossy
Stream size : 193 MiB (10%)
Language : English
Service kind : Complete Main
Default : Yes
Forced : No

Text
ID : 1
Format : UTF-8
Codec ID : S_TEXT/UTF8
Codec ID/Info : UTF-8 Plain Text
Duration : 41 min 43 s
Bit rate : 63 b/s
Count of elements : 627
Stream size : 19.3 KiB (0%)
Language : English
Default : Yes
Forced : No

We have no issue with individuals posting or re-uploading our torrents on a platform we aren't on. However, if this is something you'd like to do, please do so in a 'as-is' format. We ask that you do not create a new torrent, include all descriptions you see above including the SEV logo, tags, notes and screenshots.
If you'd like to become a permanent poster on a website we don't post to, feel free to get in contact with a Sublime Encoded Video member.

We are recruiting/training new members for SEV & seedbox providers as well as people to help out with subtitles.
As you already know, we deliver quality, so you know the standard.
If you're interested, feel free to contact any of the team members.

Files:

  • The 100 S06E04 The Face Behind the Glass 1080p AMZN WEBRip x265 DDP 5.1 D0ct0rLew[SEV].mkv (1.9 GB)

There are currently no comments. Feel free to leave one :)

Code:

  • //tracker3.itzmx.com:6961/announce
  • udp://tracker.leechers-paradise.org:6969/announce
  • udp://tracker.coppersurfer.tk:6969/announce
  • udp://tracker.internetwarriors.net:1337/announce
  • udp://tracker.opentrackr.org:1337/announce
  • udp://exodus.desync.com:6969/announce
  • udp://explodie.org:6969/announce
  • udp://tracker.torrent.eu.org:451/announce
  • udp://tracker.cyberia.is:6969/announce
  • udp://thetracker.org:80/announce
  • udp://open.demonii.si:1337/announce
  • udp://ipv4.tracker.harry.lu:80/announce
  • udp://denis.stalker.upeer.me:6969/announce
  • udp://retracker.lanta-net.ru:2710/announce
  • udp://open.stealth.si:80/announce
  • //open.acgnxtracker.com:80/announce
  • //explodie.org:6969/announce
  • udp://tracker.justseed.it:1337/announce
  • udp://9.rarbg.me:2710/announce
DOWNLOAD Torrent