Loading...

Junglee (2019) 1080p WEB-Rip x264 AC3 ESUB ~ Ranvijay [Team SSX]

  • Category Movies
  • Type Bollywood
  • Language Hindi
  • Total size 2.6 GB
  • Uploaded By TheFighter
  • Downloads 3408
  • Last checked 2 weeks ago
  • Date uploaded 3 weeks ago
  • Seeders 38
  • Leechers 11

Junglee

ActionAdventure

A vet returns home to his father's elephant reserve where he encounters and fights an international poacher's racket.

Infohash : 01ADA701E3917464783722CA31381901CCE87F15







Junglee (2019) 1080p WEB-Rip x264 AC3 ESUB ~ Ranvijay [Team SSX]

Buy RDP Online




Format                                   : Matroska
Format version                           : Version 4 / Version 2
File size                                : 2.56 GiB
Duration                                 : 1 h 54 min
Overall bit rate                         : 3 193 kb/s
Movie name                               : Junglee (2019) 1080p WEB-Rip x264 AC3 ESUB ~ Ranvijay

Video
ID                                       : 1
Format                                   : AVC
Format/Info                              : Advanced Video Codec
Duration                                 : 1 h 54 min
Bit rate                                 : 3 000 kb/s
Width                                    : 1 920 pixels
Height                                   : 816 pixels
Display aspect ratio                     : 2.35:1
Frame rate mode                          : Constant
Frame rate                               : 24.000 FPS
Color space                              : YUV
Chroma subsampling                       : 4:2:0
Bit depth                                : 8 bits
Scan type                                : Progressive
Bits/(Pixel*Frame)                       : 0.080
Stream size                              : 2.41 GiB (94%)
Title                                    : ~Ranvijay~

Audio
ID                                       : 2
Format                                   : AC-3
Format/Info                              : Audio Coding 3
Codec ID                                 : A_AC3
Duration                                 : 1 h 54 min
Bit rate mode                            : Constant
Bit rate                                 : 192 kb/s
Channel(s)                               : 2 channels
Channel positions                        : Front: L R
Sampling rate                            : 48.0 kHz
Frame rate                               : 31.250 FPS (1536 SPF)
Bit depth                                : 16 bits
Compression mode                         : Lossy
Stream size                              : 158 MiB (6%)
Title                                    : ~Ranvijay~
Language                                 : Hindi
Service kind                             : Complete Main
Default                                  : Yes
Forced                                   : Yes

Text
ID                                       : 3
Format                                   : UTF-8
Codec ID                                 : S_TEXT/UTF8
Codec ID/Info                            : UTF-8 Plain Text
Duration                                 : 1 h 50 min
Bit rate                                 : 36 b/s
Count of elements                        : 1168
Stream size                              : 29.3 KiB (0%)
Title                                    : ~Ranvijay~
Language                                 : English
Default                                  : Yes
Forced                                   : Yes










Don't walk as you are king, walk as you don't care who the king is....!!


Files:

Junglee (2019) 1080p WEB-Rip x264 AC3 ESUB ~ Ranvijay
  • SpecialRDP - Premium & Affordable Web Hosting Solution.url (0.0 KB)
  • Sample - Junglee (2019) 1080p WEB-Rip x264 AC3 ESUB ~ Ranvijay.mkv (16.1 MB)
  • Junglee (2019) 1080p WEB-Rip x264 AC3 ESUB ~ Ranvijay.mkv (2.6 GB)

Comments

Code:

  • udp://tracker.pirateparty.gr:6969/announce
  • udp://tracker.tiny-vps.com:6969/announce
  • udp://open.stealth.si:80/announce
  • udp://tracker.opentrackr.org:1337/announce
  • udp://tracker.internetwarriors.net:1337/announce
  • udp://9.rarbg.to:2710/announce
  • udp://tracker1.itzmx.com:8080/announce
  • udp://9.rarbg.me:2740/announce
  • udp://thetracker.org:80/announce
  • udp://tracker.coppersurfer.tk:6969/announce
  • //tracker.fastdownload.xyz:443/announce
  • udp://torrentclub.tech:6969/announce
  • udp://open.demonii.si:1337/announce
  • //seeders-paradise.org:443/announce
  • //share.camoe.cn:8080/announce
  • udp://9.rarbg.com:2740/announce
  • udp://9.rarbg.me:2790/announce
  • //open.acgnxtracker.com:80/announce
  • udp://9.rarbg.to:2800/announce
  • udp://thetracker.org:80/announce
  • udp://tracker.opentrackr.org:1337/announce
  • udp://tracker.coppersurfer.tk:6969/announce
  • udp://tracker.pirateparty.gr:6969/announce
  • udp://shadowshq.yi.org:6969/announce
  • udp://eddie4.nl:6969/announce
  • udp://tracker.leechers-paradise.org:6969/announce
  • udp://tracker.opentrackr.org:1337/announce
  • udp://p4p.arenabg.ch:1337/announce
  • udp://p4p.arenabg.com:1337/announce
  • udp://9.rarbg.me:2720/announce
  • udp://9.rarbg.to:2710/announce
  • udp://ipv4.tracker.harry.lu:80/announce
  • udp://tracker.grepler.com:6969/announce
  • udp://public.popcorn-tracker.org:6969/announce
  • udp://tracker.opentrackr.org:1337/announce
  • udp://tracker.zer0day.to:1337/announce
  • udp://tracker.leechers-paradise.org:6969/announce
  • udp://coppersurfer.tk:6969/announce
  • //bwt.pw/announce.php
DOWNLOAD Torrent