Loading...

Breaking Bad (2008) Season 01 S01 + Featurettes (1080p WEBRip x26...

  • Category TV
  • Type HEVC/x265
  • Language English
  • Total size 2.9 GB
  • Uploaded By UTRCorp
  • Downloads 1178
  • Last checked 4 weeks ago
  • Date uploaded 1 month ago
  • Seeders 11
  • Leechers 19

Infohash : 0FAA5B8E948523E8AE62D51A32C64E90C5F12553


Media Information

Code:

General
Format : Matroska
Format version : Version 4 / Version 2
File size : 378 MiB
Duration : 48 min 3 s
Overall bit rate : 1 098 kb/s
Movie name : Breaking Bad: Season 1, Episode 5: Gray Matter (2008) - Release for ULTRAHDCLUB
Encoded date : UTC 2016-05-05 10:21:04
Writing application : mkvmerge v9.0.1 ('Obstacles') 64bit
Writing library : libebml v1.3.3 + libmatroska v1.4.4

Video
ID : 1
Format : HEVC
Format/Info : High Efficiency Video Coding
Format profile : Main [email protected]@Main
Codec ID : V_MPEGH/ISO/HEVC
Duration : 48 min 0 s
Bit rate : 930 kb/s
Width : 1 920 pixels
Height : 1 080 pixels
Display aspect ratio : 16:9
Frame rate mode : Constant
Frame rate : 23.976 (24000/1001) FPS
Color space : YUV
Chroma subsampling : 4:2:0
Bit depth : 10 bits
Bits/(Pixel*Frame) : 0.019
Stream size : 319 MiB (85%)
Writing library : x265 1.9+140-34a3d35c5f97:[Windows][GCC 5.3.0][64 bit] 10bit
Encoding settings : wpp / ctu=64 / min-cu-size=8 / max-tu-size=32 / tu-intra-depth=1 / tu-inter-depth=1 / me=1 / subme=2 / merange=57 / no-rect / no-amp / max-merge=2 / temporal-mvp / no-early-skip / rdpenalty=0 / no-tskip / no-tskip-fast / strong-intra-smoothing / no-lossless / no-cu-lossless / no-constrained-intra / no-fast-intra / open-gop / no-temporal-layers / interlace=0 / keyint=250 / min-keyint=23 / scenecut=40 / rc-lookahead=20 / lookahead-slices=6 / bframes=4 / bframe-bias=0 / b-adapt=2 / ref=3 / limit-refs=3 / no-limit-modes / weightp / no-weightb / aq-mode=0 / qg-size=64 / aq-strength=0.00 / cbqpoffs=0 / crqpoffs=0 / rd=3 / psy-rd=2.00 / rdoq-level=0 / psy-rdoq=0.00 / no-rd-refine / signhide / deblock=0:0 / sao / no-sao-non-deblock / b-pyramid / no-cutree / no-intra-refresh / rc=2 / pass / bitrate=930 / qcomp=0.60 / qpmin=0 / qpmax=51 / qpstep=1 / cplxblur=20.0 / qblur=0.5 / ipratio=1.10 / pbratio=1.00
Default : Yes
Forced : No

Audio
ID : 2
Format : AAC
Format/Info : Advanced Audio Codec
Format profile : HE-AAC / LC
Codec ID : A_AAC
Duration : 48 min 3 s
Bit rate : 167 kb/s
Channel(s) : 6 channels
Channel positions : Front: L C R, Side: L R, LFE
Sampling rate : 48.0 kHz / 24.0 kHz
Frame rate : 23.438 FPS (1024 spf)
Compression mode : Lossy
Delay relative to video : 31 ms
Stream size : 57.6 MiB (15%)
Language : English
Default : No
Forced : No



Source Information

Code:

Release: 2160p Troll UHD


Code:


Note From UTR
We have no issue with individuals posting or re-uploading our torrents on a platform we aren't on. However, if this is something you'd like to do, please do so in a 'as-is' format. We ask that you do not create a new torrent, include all descriptions you see above including the UTR logo, tags, notes and screenshots. If you'd like to become a permanent poster on a website we don't post to, feel free to get in contact with a UniTeam member.

If possible please donate: BTC 1QA5fum5AyXvWzdVCkQzUNvw3Ef15fHRaR





Files:

Breaking Bad Season 1 (1080p x265 10bit Joy)
  • Breaking Bad S01E01 Pilot (1080p x265 10bit Joy).mkv (456.4 MB)
  • Breaking Bad S01E02 Cat's in the Bag... (1080p x265 10bit Joy).mkv (377.8 MB)
  • Breaking Bad S01E03 ...And the Bag's in the River (1080p x265 10bit Joy).mkv (367.4 MB)
  • Breaking Bad S01E04 Cancer Man (1080p x265 10bit Joy).mkv (377.2 MB)
  • Breaking Bad S01E05 Gray Matter (1080p x265 10bit Joy).mkv (377.6 MB)
  • Breaking Bad S01E06 Crazy Handful of Nothin' (1080p x265 10bit Joy).mkv (376.3 MB)
  • Breaking Bad S01E07 A No-Rough-Stuff-Type Deal (1080p x265 10bit Joy).mkv (373.5 MB)
  • Encoded by JoyBell.txt (0.4 KB)
  • folder.jpg (49.6 KB)
  • How to play HEVC (THIS FILE).txt (2.9 KB)
  • Ninite K-Lite Codecs Unattended Silent Installer and Updater.website (0.5 KB)
  • Extras
    • Breaking Bad - S01 Extra - Breaking Bad on AMC.m4v (2.4 MB)
    • Breaking Bad - S01 Extra - Inside Breaking Bad.m4v (48.7 MB)
    • Breaking Bad - S01 Extra - Interview with Gilligan and Cranston.m4v (33.8 MB)
    • Breaking Bad - S01 Extra - Making Of Breaking Bad.m4v (76.8 MB)
    • Breaking Bad - S01 Extra - Screen Tests.m4v (13.0 MB)
    • Breaking Bad - S01E01 Deleted Scene - Walt Jr Helps His Dad.m4v (5.3 MB)
    • Breaking Bad - S01E01 Deleted Scene - Walt Shows Jesse The Goods.m4v (19.1 MB)
    • Breaking Bad - S01E01 Deleted Scene - Walt's Birthday Speech.m4v (13.8 MB)
    • Breaking Bad - S01E05 Deleted Scene - Target Practice.m4v (6.6 MB)
    • Breaking Bad - S01E05 Deleted Scene - Walt and Skyler Arrive At The Party.m4v (4.3 MB)
    • Breaking Bad - S01E07 Deleted Scene - Mr White's Plan.m4v (5.1 MB)
    • Breaking Bad - S01E07 Deleted Scene - Showing The House.m4v (903.7 KB)

Comments

Code:

  • udp://tracker.coppersurfer.tk:6969/announce
  • udp://9.rarbg.com:2710/announce
  • udp://9.rarbg.to:2710/announce
  • udp://tracker.torrent.eu.org:451/announce
  • udp://exodus.desync.com:6969/announce
  • udp://tracker.tiny-vps.com:6969/announce
  • udp://open.demonii.si:1337/announce
  • udp://tracker.opentrackr.org:1337/announce
  • udp://tracker.internetwarriors.net:1337/announce
DOWNLOAD Torrent