Loading...

E-Type - Best Of - (2009) Flac

  • Category Music
  • Type Lossless
  • Language English
  • Total size 606.5 MB
  • Uploaded By was95was
  • Downloads 55
  • Last checked 3 weeks ago
  • Date uploaded 3 weeks ago
  • Seeders 2
  • Leechers 2

Infohash : 4178A7FBBBBE22E1D4A9D8CFD8B1147C6515D853



Quality-Lossless
Release-2009
Duration-01:19:08
File Size-636.0 MB
Genre-Eurodance
Cover Size-1200px

----------------------------------------------------------------------------------------------
Analyzed: Best Of / Artist: E-Type
----------------------------------------------------------------------------------------------
DR Peak RMS Duration Title [codec]
----------------------------------------------------------------------------------------------
DR7 -0.29 dB -8.78 dB 3:50 01 - Angels Crying [flac]
DR7 -0.00 dB -9.58 dB 3:12 02 - Russian Lullaby [flac]
DR6 -0.66 dB -8.26 dB 3:54 03 - Here I Go Again [flac]
DR8 -0.00 dB -9.87 dB 3:43 04 - Set The World On Fire [flac]
DR8 -0.61 dB -10.28 dB 4:19 05 - Do You Always (Have To Be Alone)? [flac]
DR8 -0.32 dB -9.77 dB 3:37 06 - Calling Your Name [flac]
DR8 -0.31 dB -10.50 dB 3:52 07 - I Just Wanna Be With You [flac]
DR8 -0.04 dB -9.71 dB 3:31 08 - So Dem A Com [flac]
DR8 -0.00 dB -9.36 dB 3:56 09 - This Is The Way [flac]
DR7 -0.20 dB -7.94 dB 3:41 10 - Life [flac]
DR8 -0.00 dB -9.46 dB 3:22 11 - When Religion Comes To Town [flac]
DR5 -0.00 dB -6.72 dB 3:39 12 - True Believer [flac]
DR7 -0.23 dB -10.27 dB 3:35 13 - Free Like A Flying Demon [flac]
DR6 -0.30 dB -8.59 dB 3:33 14 - Campione 2000 [flac]
DR7 -0.00 dB -8.21 dB 3:31 15 - Ding Ding Song [flac]
DR7 -0.53 dB -8.88 dB 3:39 16 - Princess Of Egypt [flac]
DR5 -0.20 dB -6.95 dB 3:53 17 - Africa [flac]
DR7 -0.10 dB -9.07 dB 3:14 18 - The Original You [flac]
DR6 -0.10 dB -7.31 dB 3:27 19 - Paradise feat. NaNa [flac]
DR5 -0.00 dB -6.68 dB 3:46 20 - Eurofighter [flac]
DR6 -0.10 dB -7.52 dB 3:16 21 - The Predator [flac]
DR7 -0.20 dB -9.02 dB 3:04 22 - Banca Banca [flac]
----------------------------------------------------------------------------------------------
Number of files: 22
Official DR value: DR7

Sampling rate: 44100 Hz
Average bitrate: 1060kbs
Bits per sample: 16 bit

Dr14 T.meter 1.0.16
==============================================================================================

Files:

E-Type - Best Of - (2009) Flac
  • 01 - Angels Crying.flac (29.1 MB)
  • 02 - Russian Lullaby.flac (24.5 MB)
  • 03 - Here I Go Again.flac (30.0 MB)
  • 04 - Set The World On Fire.flac (27.8 MB)
  • 05 - Do You Always (Have To Be Alone)_.flac (30.8 MB)
  • 06 - Calling Your Name.flac (27.0 MB)
  • 07 - I Just Wanna Be With You.flac (28.1 MB)
  • 08 - So Dem A Com.flac (26.2 MB)
  • 09 - This Is The Way.flac (30.1 MB)
  • 10 - Life.flac (28.8 MB)
  • 11 - When Religion Comes To Town.flac (24.1 MB)
  • 12 - True Believer.flac (27.4 MB)
  • 13 - Free Like A Flying Demon.flac (25.3 MB)
  • 14 - Campione 2000.flac (27.2 MB)
  • 15 - Ding Ding Song.flac (26.8 MB)
  • 16 - Princess Of Egypt.flac (28.4 MB)
  • 17 - Africa.flac (31.3 MB)
  • 18 - The Original You.flac (25.3 MB)
  • 19 - Paradise.flac (27.6 MB)
  • 20 - Eurofighter.flac (29.7 MB)
  • 21 - The Predator.flac (26.8 MB)
  • 22 - Banca Banca.flac (23.5 MB)
  • cover.jpg (663.2 KB)
  • dr14.txt (2.0 KB)

There are currently no comments. Feel free to leave one :)

Code:

  • udp://tracker.piratepublic.com:1337/announce
  • udp://tracker.pirateparty.gr:6969/announce
  • udp://tracker.coppersurfer.tk:6969/announce
  • udp://tracker.leechers-paradise.org:6969/announce
  • udp://9.rarbg.com:2710/announce
  • //p4p.arenabg.com:1337/announce
  • //tracker.internetwarriors.net:1337/announce
  • udp://tracker.opentrackr.org:1337/announce
  • udp://exodus.desync.com:6969/announce
  • udp://tracker.leechers-paradise.org:6969/announce
  • udp://tracker.zer0day.to:1337/announce
  • udp://eddie4.nl:6969/announce
  • udp://open.demonii.si:1337/announce
  • udp://tracker.iamhansen.xyz:2000/announce
DOWNLOAD Torrent