Loading...

Bonnie Tyler - Greatest Hits (1989) Flac

  • Category Music
  • Type Lossless
  • Language English
  • Total size 413.1 MB
  • Uploaded By was95was
  • Downloads 422
  • Last checked 4 weeks ago
  • Date uploaded 4 weeks ago
  • Seeders 25
  • Leechers 3

Infohash : 118AB1519EA7BBCAB4BD1EE101830020E74979D3



Quality-Lossless
Release-1989
Duration-01:03:24
File Size-433.1 MB
Genre-Pop
Cover Size-1200px

----------------------------------------------------------------------------------------------
Analyzed: Greatest Hits / Artist: Bonnie Tyler
----------------------------------------------------------------------------------------------
DR Peak RMS Duration Title [codec]
----------------------------------------------------------------------------------------------
DR12 -0.75 dB -17.31 dB 4:30 01 - Total Eclipse Of The Heart [flac]
DR12 -0.32 dB -15.31 dB 4:25 02 - Holding Out For A Hero [flac]
DR13 -0.11 dB -16.35 dB 3:50 03 - (The World Is Full Of) Married Men [flac]
DR13 -0.00 dB -14.87 dB 2:53 04 - Rockin' Goodway (To Mess Around And Fall In Love) [flac]
DR14 -1.53 dB -18.21 dB 3:25 05 - Here She Comes [flac]
DR12 -0.69 dB -15.64 dB 3:49 06 - Band Of Gold [flac]
DR12 -0.20 dB -15.43 dB 4:41 07 - Faster Than The Speed Of Night [flac]
DR12 -2.40 dB -20.73 dB 4:16 08 - Lovers Again [flac]
DR12 -1.00 dB -15.61 dB 3:56 09 - Lost In France [flac]
DR13 -1.65 dB -17.51 dB 3:31 10 - It's A Heartache [flac]
DR14 -0.00 dB -15.60 dB 3:31 11 - Getting So Excited [flac]
DR13 -1.44 dB -16.95 dB 4:08 12 - Have You Ever Seen The Rain? [flac]
DR12 -0.79 dB -15.36 dB 3:43 13 - I Believe In Your Sweet Love [flac]
DR12 -1.93 dB -18.36 dB 4:46 14 - If I Sing You A Love Song [flac]
DR13 -0.00 dB -17.21 dB 4:13 15 - More Than A Lover [flac]
DR12 -1.41 dB -15.89 dB 3:39 16 - Straight From The Heart [flac]
----------------------------------------------------------------------------------------------
Number of files: 16
Official DR value: DR13

Sampling rate: 44100 Hz
Average bitrate: 908kbs
Bits per sample: 16 bit

Dr14 T.meter 1.0.16
==============================================================================================

Files:

Bonnie Tyler - Greatest Hits (1989) Flac
  • 01 - Total Eclipse Of The Heart.flac (28.0 MB)
  • 02 - Holding Out For A Hero.flac (31.3 MB)
  • 03 - (The World Is Full Of) Married Men.flac (25.6 MB)
  • 04 - Rockin' Goodway (To Mess Around And Fall In Love).flac (19.0 MB)
  • 05 - Here She Comes.flac (21.9 MB)
  • 06 - Band Of Gold.flac (26.6 MB)
  • 07 - Faster Than The Speed Of Night.flac (32.5 MB)
  • 08 - Lovers Again.flac (24.1 MB)
  • 09 - Lost In France.flac (26.8 MB)
  • 10 - It's A Heartache.flac (21.8 MB)
  • 11 - Getting So Excited.flac (23.8 MB)
  • 12 - Have You Ever Seen The Rain-.flac (28.0 MB)
  • 13 - I Believe In Your Sweet Love.flac (25.3 MB)
  • 14 - If I Sing You A Love Song.flac (29.0 MB)
  • 15 - More Than A Lover.flac (24.9 MB)
  • 16 - Straight From The Heart.flac (24.0 MB)
  • [TGx]Downloaded from torrentgalaxy.org .txt (0.6 KB)
  • cover.jpg (363.6 KB)
  • dr14.txt (1.8 KB)
  • Torrent Downloaded from Glodls.to.txt (0.2 KB)
  • Torrent downloaded from limetorrents.cc.txt (0.1 KB)
  • Torrent Downloaded from worldwidetorrents.to (0.1 KB)

There are currently no comments. Feel free to leave one :)

Code:

  • udp://tracker.piratepublic.com:1337/announce
  • udp://tracker.pirateparty.gr:6969/announce
  • udp://tracker.coppersurfer.tk:6969/announce
  • udp://tracker.leechers-paradise.org:6969/announce
  • udp://9.rarbg.com:2710/announce
  • //p4p.arenabg.com:1337/announce
  • //tracker.internetwarriors.net:1337/announce
  • udp://tracker.opentrackr.org:1337/announce
  • udp://exodus.desync.com:6969/announce
  • udp://tracker.leechers-paradise.org:6969/announce
  • udp://tracker.zer0day.to:1337/announce
  • udp://eddie4.nl:6969/announce
  • udp://open.demonii.si:1337/announce
  • udp://tracker.iamhansen.xyz:2000/announce
DOWNLOAD Torrent