Loading...

Pokemon.Detective.Pikachu.2019.1080p.HDRip.x264.AAC2.0-STUTTERSHI...

  • Category Movies
  • Type HD
  • Language English
  • Total size 3.5 GB
  • Uploaded By SeekNDstroy
  • Downloads 95216
  • Last checked 3 months ago
  • Date uploaded 3 months ago
  • Seeders 4078
  • Leechers 1492

Pokémon Detective Pikachu

MysteryFamilyComedyScience FictionActionAdventure

In a world where people collect pocket-size monsters (Pokémon) to do battle, a boy comes across an intelligent monster who seeks to be a detective.

Infohash : 13BCFE725C0F663F439478D160AD59891A0475DE



In a world where people collect Pokémon to do battle| a boy comes across an intelligent talking Pikachu who seeks to be a detective.

Video
ID : 1
Format : AVC
Format/Info : Advanced Video Codec
Format profile : [email protected]
Format settings : CABAC / 5 Ref Frames
Format settings, CABAC : Yes
Format settings, ReFrames : 5 frames
Codec ID : V_MPEG4/ISO/AVC
Duration : 1 h 37 min
Bit rate : 4 897 kb/s
Width : 1 920 pixels
Height : 800 pixels
Display aspect ratio : 2.40:1
Frame rate mode : Constant
Frame rate : 30.303 FPS
Color space : YUV
Chroma subsampling : 4:2:0
Bit depth : 8 bits
Scan type : Progressive
Bits/(Pixel*Frame) : 0.105
Stream size : 3.35 GiB (95%)
Title : Pokemon.Detective.Pikachu.2019.1080p.HDRip.x264.AAC2.0-STUTTERSHIT
Writing library : x264 core 142 r2479 dd79a61
Encoding settings : cabac=1 / ref=5 / deblock=1:0:0 / analyse=0x3:0x113 / me=umh / subme=8 / psy=1 / psy_rd=1.00:0.00 / mixed_ref=1 / me_range=16 / chroma_me=1 / trellis=1 / 8x8dct=1 / cqm=0 / deadzone=21,11 / fast_pskip=1 / chroma_qp_offset=-2 / threads=24 / lookahead_threads=4 / sliced_threads=0 / nr=0 / decimate=1 / interlaced=0 / bluray_compat=0 / constrained_intra=0 / bframes=3 / b_pyramid=2 / b_adapt=2 / b_bias=0 / direct=3 / weightb=1 / open_gop=0 / weightp=2 / keyint=300 / keyint_min=30 / scenecut=40 / intra_refresh=0 / rc_lookahead=50 / rc=abr / mbtree=1 / bitrate=4897 / ratetol=1.0 / qcomp=0.60 / qpmin=0 / qpmax=69 / qpstep=4 / vbv_maxrate=62500 / vbv_bufsize=78125 / nal_hrd=none / filler=0 / ip_ratio=1.40 / aq=1:1.00
Language : English
Default : Yes
Forced : No
Color range : Limited
Color primaries : BT.709
Transfer characteristics : BT.709
Matrix coefficients : BT.709

Audio
ID : 2
Format : AAC LC
Format/Info : Advanced Audio Codec Low Complexity
Codec ID : A_AAC-2
Duration : 1 h 37 min
Bit rate : 256 kb/s
Channel(s) : 2 channels
Channel layout : L R
Sampling rate : 48.0 kHz
Frame rate : 46.875 FPS (1024 SPF)
Compression mode : Lossy
Delay relative to video : -109 ms
Stream size : 178 MiB (5%)
Title : Pokemon.Detective.Pikachu.2019.1080p.HDRip.x264.AAC2.0-STUTTERSHIT
Language : English
Default : Yes
Forced : No


Files:

Pokemon.Detective.Pikachu.2019.1080p.HDRip.x264.AAC2.0-STUTTERSHIT
  • Pokemon.Detective.Pikachu.2019.1080p.HDRip.x264.AAC2.0-STUTTERSHIT.mkv (3.5 GB)
  • RARBG.txt (0.0 KB)

Comments

Code:

  • //tracker.trackerfix.com:80/announce
  • udp://9.rarbg.me:2730/announce
  • udp://9.rarbg.to:2770/announce
DOWNLOAD Torrent
X
Attention! Use a VPN when Accessing Free Content !
Your IP address is - Country:
Your Internet provider Tracks your Activity! Hide your IP ADDRESS with a VPN!
Bonus: Get Lag-Free Streams & No popups with any VPN Purchased !

Download Here