Loading...

Hunter Killer (2018) (1080p BluRay x265 HEVC 10bit AAC 7.1 Q22 Jo...

  • Category Movies
  • Type HEVC/x265
  • Language English
  • Total size 2.1 GB
  • Uploaded By UTRCorp
  • Downloads 808
  • Last checked 3 months ago
  • Date uploaded 3 months ago
  • Seeders 31
  • Leechers 2

Hunter Killer

Action

An untested American submarine captain teams with U.S. Navy Seals to rescue the Russian president, who has been kidnapped by a rogue general.

Infohash : CBA2584CC2362CEDB8439293C0B4A8619998FC68







Media Information

Media Information

Code:

General
Format : Matroska
Format version : Version 4 / Version 2
File size : 2.07 GiB
Duration : 2 h 1 min
Overall bit rate : 2 431 kb/s
Movie name : Hunter Killer 2018 (1080p x265 q22 S90 Joy)[UTR]
Encoded date : UTC 2019-06-09 03:29:32
Writing application : mkvmerge v33.0.0 ('A Little Bit of Madness') 64-bit
Writing library : libebml v1.3.7 + libmatroska v1.5.0
Cover : Yes
Attachments : cover.jpg
Writing frontend : StaxRip v2.0.2.0, a JoyBell Encode

Video
ID : 1
Format : HEVC
Format/Info : High Efficiency Video Coding
Format profile : Main [email protected]@Main
Codec ID : V_MPEGH/ISO/HEVC
Duration : 2 h 1 min
Bit rate : 1 964 kb/s
Width : 1 920 pixels
Height : 800 pixels
Display aspect ratio : 2.40:1
Frame rate mode : Constant
Frame rate : 23.976 (24000/1001) FPS
Color space : YUV
Chroma subsampling : 4:2:0
Bit depth : 10 bits
Bits/(Pixel*Frame) : 0.053
Stream size : 1.67 GiB (81%)
Writing library : x265 3.0_Au+14-c7e5878bdd31:[Windows][MSVC 1916][64 bit] 10bit
Encoding settings : cpuid=1111039 / frame-threads=3 / numa-pools=12 / wpp / no-pmode / no-pme / no-psnr / ssim / log-level=2 / input-csp=1 / input-res=1920x800 / interlace=0 / total-frames=175080 / level-idc=0 / high-tier=1 / uhd-bd=0 / ref=4 / no-allow-non-conformance / no-repeat-headers / annexb / no-aud / no-hrd / info / hash=0 / no-temporal-layers / open-gop / min-keyint=23 / keyint=250 / gop-lookahead=0 / bframes=8 / b-adapt=2 / b-pyramid / bframe-bias=20 / rc-lookahead=80 / lookahead-slices=4 / scenecut=40 / radl=0 / no-splice / no-intra-refresh / ctu=64 / min-cu-size=8 / rect / no-amp / max-tu-size=32 / tu-inter-depth=1 / tu-intra-depth=1 / limit-tu=0 / rdoq-level=2 / dynamic-rd=0.00 / ssim-rd / signhide / no-tskip / nr-intra=0 / nr-inter=0 / constrained-intra / strong-intra-smoothing / max-merge=3 / limit-refs=3 / limit-modes / me=3 / subme=5 / merange=57 / temporal-mvp / weightp / no-weightb / no-analyze-src-pics / no-deblock / sao / no-sao-non-deblock / rd=4 / early-skip / rskip / no-fast-intra / no-tskip-fast / no-cu-lossless / no-b-intra / no-splitrd-skip / rdpenalty=0 / psy-rd=2.20 / psy-rdoq=1.50 / no-rd-refine / no-lossless / cbqpoffs=0 / crqpoffs=0 / rc=crf / crf=21.5 / qcomp=0.60 / qpstep=4 / stats-write=0 / stats-read=0 / ipratio=1.40 / pbratio=1.30 / aq-mode=1 / aq-strength=1.00 / cutree / zone-count=0 / no-strict-cbr / qg-size=32 / no-rc-grain / qpmax=69 / qpmin=0 / no-const-vbv / sar=0 / overscan=0 / videoformat=5 / range=0 / colorprim=2 / transfer=2 / colormatrix=2 / chromaloc=0 / display-window=0 / max-cll=0,0 / min-luma=0 / max-luma=1023 / log2-max-poc-lsb=8 / vui-timing-info / vui-hrd-info / slices=1 / no-opt-qp-pps / no-opt-ref-list-length-pps / no-multi-pass-opt-rps / scenecut-bias=0.05 / no-opt-cu-delta-qp / no-aq-motion / no-hdr / no-hdr-opt / no-dhdr10-opt / no-idr-recovery-sei / analysis-reuse-level=5 / scale-factor=0 / refine-intra=0 / refine-inter=0 / refine-mv=0 / refine-ctu-distortion=0 / no-limit-sao / ctu-info=0 / no-lowpass-dct / refine-analysis-type=0 / copy-pic=1 / max-ausize-factor=1.0 / no-dynamic-refine / no-single-sei / no-hevc-aq / no-svt / qp-adaptation-range=1.00
Default : Yes
Forced : No

Audio
ID : 2
Format : AAC
Format/Info : Advanced Audio Codec
Format profile : LC
Codec ID : A_AAC
Duration : 2 h 1 min
Bit rate : 452 kb/s
Channel(s) : 8 channels
Channel positions : Front: L C R, Side: L R, Back: L R, LFE
Sampling rate : 48.0 kHz
Frame rate : 46.875 FPS (1024 spf)
Compression mode : Lossy
Delay relative to video : 9 ms
Stream size : 394 MiB (19%)
Language : English
Default : No
Forced : No

Subtitle #1
ID : 3
Format : UTF-8
Codec ID : S_TEXT/UTF8
Codec ID/Info : UTF-8 Plain Text
Duration : 1 h 49 min
Bit rate : 46 b/s
Count of elements : 1217
Stream size : 37.5 KiB (0%)
Language : English
Default : No
Forced : No

Subtitle #2
ID : 4
Format : UTF-8
Codec ID : S_TEXT/UTF8
Codec ID/Info : UTF-8 Plain Text
Duration : 1 h 50 min
Bit rate : 54 b/s
Count of elements : 1492
Stream size : 44.1 KiB (0%)
Language : English
Default : No
Forced : No

Subtitle #3
ID : 5
Format : VobSub
Muxing mode : zlib
Codec ID : S_VOBSUB
Codec ID/Info : Picture based subtitle format used on DVDs
Duration : 1 h 50 min
Bit rate : 11.3 kb/s
Count of elements : 1501
Stream size : 8.94 MiB (0%)
Language : English
Default : No
Forced : No

Subtitle #4
ID : 6
Format : VobSub
Muxing mode : zlib
Codec ID : S_VOBSUB
Codec ID/Info : Picture based subtitle format used on DVDs
Duration : 1 h 50 min
Bit rate : 9 406 b/s
Count of elements : 1038
Stream size : 7.42 MiB (0%)
Language : Spanish
Default : No
Forced : No

Subtitle #5
ID : 7
Format : VobSub
Muxing mode : zlib
Codec ID : S_VOBSUB
Codec ID/Info : Picture based subtitle format used on DVDs
Duration : 1 h 31 min
Bit rate : 204 b/s
Count of elements : 14
Stream size : 136 KiB (0%)
Language : Spanish
Default : No
Forced : Yes

Subtitle #6
ID : 8
Format : UTF-8
Codec ID : S_TEXT/UTF8
Codec ID/Info : UTF-8 Plain Text
Duration : 1 h 57 min
Bit rate : 67 b/s
Count of elements : 1223
Stream size : 58.0 KiB (0%)
Language : Arabic
Default : No
Forced : No

Subtitle #7
ID : 9
Format : UTF-8
Codec ID : S_TEXT/UTF8
Codec ID/Info : UTF-8 Plain Text
Duration : 1 h 53 min
Bit rate : 35 b/s
Count of elements : 778
Stream size : 30.0 KiB (0%)
Language : Danish
Default : No
Forced : No

Subtitle #8
ID : 10
Format : UTF-8
Codec ID : S_TEXT/UTF8
Codec ID/Info : UTF-8 Plain Text
Duration : 2 h 0 min
Bit rate : 41 b/s
Count of elements : 907
Stream size : 37.0 KiB (0%)
Language : Dutch
Default : No
Forced : No

Subtitle #9
ID : 11
Format : UTF-8
Codec ID : S_TEXT/UTF8
Codec ID/Info : UTF-8 Plain Text
Duration : 1 h 51 min
Bit rate : 81 b/s
Count of elements : 1221
Stream size : 66.0 KiB (0%)
Language : Persian
Default : No
Forced : No

Subtitle #10
ID : 12
Format : UTF-8
Codec ID : S_TEXT/UTF8
Codec ID/Info : UTF-8 Plain Text
Duration : 1 h 53 min
Bit rate : 27 b/s
Count of elements : 778
Stream size : 23.0 KiB (0%)
Language : Finnish
Default : No
Forced : No

Subtitle #11
ID : 13
Format : UTF-8
Codec ID : S_TEXT/UTF8
Codec ID/Info : UTF-8 Plain Text
Duration : 2 h 0 min
Bit rate : 51 b/s
Count of elements : 1368
Stream size : 45.4 KiB (0%)
Language : French
Default : No
Forced : No

Subtitle #12
ID : 14
Format : UTF-8
Codec ID : S_TEXT/UTF8
Codec ID/Info : UTF-8 Plain Text
Duration : 1 h 59 min
Bit rate : 44 b/s
Count of elements : 1108
Stream size : 39.0 KiB (0%)
Language : German
Default : No
Forced : No

Subtitle #13
ID : 15
Format : UTF-8
Codec ID : S_TEXT/UTF8
Codec ID/Info : UTF-8 Plain Text
Duration : 1 h 51 min
Bit rate : 62 b/s
Count of elements : 942
Stream size : 50.9 KiB (0%)
Language : Greek
Default : No
Forced : No

Subtitle #14
ID : 16
Format : UTF-8
Codec ID : S_TEXT/UTF8
Codec ID/Info : UTF-8 Plain Text
Duration : 1 h 52 min
Bit rate : 69 b/s
Count of elements : 1051
Stream size : 57.1 KiB (0%)
Language : Hebrew
Default : No
Forced : No

Subtitle #15
ID : 17
Format : UTF-8
Codec ID : S_TEXT/UTF8
Codec ID/Info : UTF-8 Plain Text
Duration : 1 h 53 min
Bit rate : 38 b/s
Count of elements : 1213
Stream size : 32.3 KiB (0%)
Language : Indonesian
Default : No
Forced : No

Subtitle #16
ID : 18
Format : UTF-8
Codec ID : S_TEXT/UTF8
Codec ID/Info : UTF-8 Plain Text
Duration : 1 h 50 min
Bit rate : 53 b/s
Count of elements : 1218
Stream size : 43.0 KiB (0%)
Language : Italian
Default : No
Forced : No

Subtitle #17
ID : 19
Format : UTF-8
Codec ID : S_TEXT/UTF8
Codec ID/Info : UTF-8 Plain Text
Duration : 1 h 53 min
Bit rate : 34 b/s
Count of elements : 778
Stream size : 28.5 KiB (0%)
Language : Norwegian
Default : No
Forced : No

Subtitle #18
ID : 20
Format : UTF-8
Codec ID : S_TEXT/UTF8
Codec ID/Info : UTF-8 Plain Text
Duration : 2 h 0 min
Bit rate : 36 b/s
Count of elements : 779
Stream size : 32.3 KiB (0%)
Language : Swedish
Default : No
Forced : No

Subtitle #19
ID : 21
Format : UTF-8
Codec ID : S_TEXT/UTF8
Codec ID/Info : UTF-8 Plain Text
Duration : 2 h 1 min
Bit rate : 97 b/s
Count of elements : 1002
Stream size : 86.6 KiB (0%)
Language : Thai
Default : No
Forced : No

Subtitle #20
ID : 22
Format : UTF-8
Codec ID : S_TEXT/UTF8
Codec ID/Info : UTF-8 Plain Text
Duration : 1 h 49 min
Bit rate : 62 b/s
Count of elements : 1235
Stream size : 49.8 KiB (0%)
Language : Vietnamese
Default : No
Forced : No

Menu
00:00:00.000 : :Chapter 1
00:06:19.629 : :Chapter 2
00:14:56.353 : :Chapter 3
00:20:00.449 : :Chapter 4
00:28:19.322 : :Chapter 5
00:38:31.183 : :Chapter 6
00:46:29.077 : :Chapter 7
00:54:15.752 : :Chapter 8
01:00:26.080 : :Chapter 9
01:09:39.967 : :Chapter 10
01:15:48.919 : :Chapter 11
01:23:29.087 : :Chapter 12
01:30:17.662 : :Chapter 13
01:39:23.248 : :Chapter 14
01:44:53.954 : :Chapter 15
01:51:35.689 : :Chapter 16



Source Information

Code:

Release: Hunter.Killer.2018.2160p.BluRay.x265.10bit.SDR.DTS-HD.MA.TrueHD.7.1.Atmos-SWTYBLZ.mkv (28.03 GBs)




Code:


Note From UTR
We have no issue with individuals posting or re-uploading our torrents on a platform we aren't on. However, if this is something you'd like to do, please do so in a 'as-is' format. We ask that you do not create a new torrent, include all descriptions you see above including the UTR logo, tags, notes and screenshots. If you'd like to become a permanent poster on a website we don't post to, feel free to get in contact with a UniTeam member.

If possible please donate: BTC 1QA5fum5AyXvWzdVCkQzUNvw3Ef15fHRaR






Files:

  • Hunter Killer 2018 (1080p x265 q22 S90 Joy).mkv (2.1 GB)

Comments

Code:

  • udp://tracker.coppersurfer.tk:6969/announce
  • udp://9.rarbg.com:2710/announce
  • udp://9.rarbg.to:2710/announce
  • udp://tracker.torrent.eu.org:451/announce
  • udp://exodus.desync.com:6969/announce
  • udp://tracker.tiny-vps.com:6969/announce
  • udp://open.demonii.si:1337/announce
  • udp://tracker.opentrackr.org:1337/announce
  • udp://tracker.internetwarriors.net:1337/announce
DOWNLOAD Torrent
X
Attention! Use a VPN when Accessing Free Content !
Your IP address is - Country:
Your Internet provider Tracks your Activity! Hide your IP ADDRESS with a VPN!
Bonus: Get Lag-Free Streams & No popups with any VPN Purchased !

Download Here