Loading...

Rim of The World 2019 1080p NF WEB-DL DD 5.1 x264 [MW]

  • Category Movies
  • Type HD
  • Language English
  • Total size 1.7 GB
  • Uploaded By moviezworldz
  • Downloads 370
  • Last checked 3 months ago
  • Date uploaded 3 months ago
  • Seeders 26
  • Leechers 9

Rim of the World

Science FictionAdventure

Four misfit teenagers become unlikely allies when their summer camp experience is cut short by an alien invasion. In this epic adventure film, the youths must overcome their fears, tackle insecurities, and learn to work as a team while they attempt to save the world.

Infohash : D8B36027615676C17EA6FC8B60179E3380719FC3





General
Format : Matroska
Format version : Version 4
File size : 1.71 GiB
Duration : 1 h 39 min
Overall bit rate : 2 463 kb/s

Video
ID : 1
Format : AVC
Format/Info : Advanced Video Codec
Format profile : [email protected]
Format settings : CABAC / 4 Ref Frames
Format settings, CABAC : Yes
Format settings, Reference frames : 4 frames
Codec ID : V_MPEG4/ISO/AVC
Duration : 1 h 39 min
Bit rate : 2 077 kb/s
Nominal bit rate : 2 200 kb/s
Width : 1 920 pixels
Height : 960 pixels
Display aspect ratio : 2.000
Frame rate mode : Constant
Frame rate : 23.976 (24000/1001) FPS
Color space : YUV
Chroma subsampling : 4:2:0
Bit depth : 8 bits
Scan type : Progressive
Bits/(Pixel*Frame) : 0.047
Stream size : 1.44 GiB (84%)
Writing library : x264 core 157 r2935 545de2f

Audio
ID : 2
Format : AC-3
Format/Info : Audio Coding 3
Commercial name : Dolby Digital
Codec ID : A_AC3
Duration : 1 h 39 min
Bit rate mode : Constant
Bit rate : 384 kb/s
Channel(s) : 6 channels
Channel layout : L R C LFE Ls Rs
Sampling rate : 48.0 kHz
Frame rate : 31.250 FPS (1536 SPF)
Bit depth : 16 bits
Compression mode : Lossy
Stream size : 272 MiB (16%)
Language : English
Service kind : Complete Main

Subtitles :- English, Finnish, German, Norwegian Bokmal, Swedish


Click To View Image







Files:

Rim of The World 2019 1080p NF WEB-DL DD 5.1 x264 [MW]
  • Rim of The World 2019 1080p NF WEB-DL DD 5.1 x264 [MW].mkv (1.7 GB)

There are currently no comments. Feel free to leave one :)

Code:

  • udp://tracker.coppersurfer.tk:6969/announce
  • udp://tracker.opentrackr.org:1337/announce
  • udp://torrent.gresille.org:80/announce
  • udp://9.rarbg.me:2710/announce
  • udp://p4p.arenabg.com:1337/announce
  • udp://tracker.internetwarriors.net:1337/announce
DOWNLOAD Torrent
X
Attention! Use a VPN when Accessing Free Content !
Your IP address is - Country:
Your Internet provider Tracks your Activity! Hide your IP ADDRESS with a VPN!
Bonus: Get Lag-Free Streams & No popups with any VPN Purchased !

Download Here