Loading...

Mangaka-san to Assistant-san to The Animation+Specals_(BD720p_10B...

  • Category Anime
  • Type Subbed
  • Language Japanese
  • Total size 1.5 GB
  • Uploaded By smoodflamez
  • Downloads 56
  • Last checked 5 months ago
  • Date uploaded 5 months ago
  • Seeders 4
  • Leechers 4

Infohash : A615B6DF5006D295C31C73670D8A3B314D9FEDDB

Title
Mangaka-san to Assistant-san to The Animation

Source
Noem-light


Storyline
Manga author Yuuki Aito is an incredibly perverted man whose main loves and desires is to love everyone close to him and draw panties. His assistant, Ashisu, is constantly put into awkward situations and is forced to cope with Aito's shenanigans.

Details
Genres: Animation | Comedy
Language: Japanese
Release Date: 7 April 2014 (Japan) See more ยป
Also Known As: The Comic Artist and Assistants


---------------------------------------------------------------------------------------------------------------------


MediaInfo
Video
ID : 1
Format : HEVC
Format/Info : High Efficiency Video Coding
Format profile : Main [email protected]@High
Codec ID : V_MPEGH/ISO/HEVC
Width : 1 280 pixels
Height : 720 pixels
Display aspect ratio : 16:9
Frame rate mode : Constant
Frame rate : 23.976 (24000/1001) FPS
Color space : YUV
Chroma subsampling : 4:2:0
Bit depth : 10 bits

Audio
ID : 2
Format : AAC LC SBR
Format/Info : Advanced Audio Codec Low Complexity with Spectral Band Replication
Commercial name : HE-AAC
Format settings : Explicit
Codec ID : A_AAC-2
Channel(s) : 2 channels
Channel layout : L R
Sampling rate : 96.0 kHz
Delay relative to video : 17 ms
Stream size : 7.55 MiB (9%)
Title : Stereo
Language : Japanese
Default : Yes
Forced : No

Text
ID : 3
Format : ASS
Codec ID : S_TEXT/ASS
Codec ID/Info : Advanced Sub Station Alphas
Stream size : 287 KiB (0%)
Language : English
Default : No
Forced : No

--------------------------------------------------------------------------------------------------

Screenshots

Files:

Mangaka-san to Assistant-san to The Animation+Specals_(BD720p_10Bit_HEVC_SmoodFlamez)
  • Mangaka-san to Assistant-san to The Animation - 01.mkv (102.8 MB)
  • Mangaka-san to Assistant-san to The Animation - 02.mkv (86.8 MB)
  • Mangaka-san to Assistant-san to The Animation - 03.mkv (94.7 MB)
  • Mangaka-san to Assistant-san to The Animation - 04.mkv (97.0 MB)
  • Mangaka-san to Assistant-san to The Animation - 05.mkv (82.9 MB)
  • Mangaka-san to Assistant-san to The Animation - 06.mkv (102.8 MB)
  • Mangaka-san to Assistant-san to The Animation - 07.mkv (93.8 MB)
  • Mangaka-san to Assistant-san to The Animation - 08.mkv (91.8 MB)
  • Mangaka-san to Assistant-san to The Animation - 09.mkv (94.6 MB)
  • Mangaka-san to Assistant-san to The Animation - 10.mkv (97.2 MB)
  • Mangaka-san to Assistant-san to The Animation - 11.mkv (87.2 MB)
  • Mangaka-san to Assistant-san to The Animation - 12.mkv (99.1 MB)
  • Posters
    • 18c279eb7a2544f1348eb2a65e64efff.jpg (155.4 KB)
    • Mangaka-san.to.Assistant-san.to.full.1114464.jpg (217.5 KB)
    • Mangaka-san.to.Assistant-san.to.full.1114472.jpg (234.8 KB)
    • mangakasan-to-assistantsan-to-vol-6-386539.2.jpg (286.8 KB)
    • mangakasantoassistantsanto_5o.jpg (3.2 MB)
    Screenshots
    • 2019-06-15_082522.png (1,017.0 KB)
    • 2019-06-15_082605.png (1.2 MB)
    • 2019-06-15_082624.png (1.5 MB)
    • 2019-06-15_082640.png (1.5 MB)
    Specials
    • Mangaka-san to Assistant-san to The Animation Special - 01.mkv (70.1 MB)
    • Mangaka-san to Assistant-san to The Animation Special - 02.mkv (49.6 MB)
    • Mangaka-san to Assistant-san to The Animation Special - 03.mkv (68.7 MB)
    • Mangaka-san to Assistant-san to The Animation Special - 04.mkv (57.2 MB)
    • Mangaka-san to Assistant-san to The Animation Special - 05.mkv (70.0 MB)
    • Mangaka-san to Assistant-san to The Animation Special - 06.mkv (69.0 MB)

There are currently no comments. Feel free to leave one :)

Code:

  • //nyaa.tracker.wf:7777/announce
  • UDP://TRACKER.ZER0DAY.TO:1337/ANNOUNCE
  • UDP://EDDIE4.NL:6969/ANNOUNCE
  • udp://tracker.opentrackr.org:1337/announce
DOWNLOAD Torrent
X
Attention! Use a VPN when Accessing Free Content !
Your IP address is - Country:
Your Internet provider Tracks your Activity! Hide your IP ADDRESS with a VPN!
Bonus: Get Lag-Free Streams & No popups with any VPN Purchased !

Download Here