Loading...

Kalank (2019) 720p WEBRip Hindi x264 AAC 5.1 ESub.-.LHDm

  • Category Movies
  • Type Bollywood
  • Language Hindi
  • Total size 1.2 GB
  • Uploaded By LHDmovies
  • Downloads 1226
  • Last checked 4 months ago
  • Date uploaded 4 months ago
  • Seeders 22
  • Leechers 15

Kalank

DramaHistoryRomance

Drama set in the 1940s during the partition of India.

Infohash : 944AA510000AD1A3D893F084790C68E19DF0561B



Visit to OUR Website Click here


General
Unique ID                                : 276571890489178213167368155647314701351 (0xD011CEFE3D5B52C245E0D6F25B9B2C27)
Complete name                            : D:\Article 15 (2019) 1-3 Pre DvDRip x264 AC3-DusIcTv\[LatestHDmovies.Club]-Kalank (2019) 720p WEBRip Hindi x264 AAC 5.1 ESub.mkv
Format                                   : Matroska
Format version                           : Version 4
File size                                : 1.19 GiB
Duration                                 : 2 h 45 min
Overall bit rate                         : 1 030 kb/s
Movie name                               : www.LatestHDmovies.Club
Encoded date                             : UTC 2019-07-01 06:43:00
Writing application                      : mkvmerge v29.0.0 ('Like It Or Not') 32-bit
Writing library                          : libebml v1.3.6 + libmatroska v1.4.9
Cover                                    : Yes
Attachments                              : cover.jpg

Video
ID                                       : 1
Format                                   : AVC
Format/Info                              : Advanced Video Codec
Format profile                           : [email protected]
Format settings                          : CABAC / 4 Ref Frames
Format settings, CABAC                   : Yes
Format settings, Reference frames        : 4 frames
Codec ID                                 : V_MPEG4/ISO/AVC
Duration                                 : 2 h 45 min
Bit rate                                 : 752 kb/s
Width                                    : 1 280 pixels
Height                                   : 532 pixels
Display aspect ratio                     : 2.40:1
Frame rate mode                          : Constant
Frame rate                               : 25.000 FPS
Color space                              : YUV
Chroma subsampling                       : 4:2:0
Bit depth                                : 8 bits
Scan type                                : Progressive
Bits/(Pixel*Frame)                       : 0.044
Stream size                              : 898 MiB (74%)
Title                                    : LatestHDmovies.Club
Writing library                          : x264 core 157
Encoding settings                        : cabac=1 / ref=1 / deblock=1:0:0 / analyse=0x3:0x3 / me=dia / subme=1 / psy=1 / psy_rd=1.00:0.00 / mixed_ref=0 / me_range=16 / chroma_me=1 / trellis=0 / 8x8dct=1 / cqm=0 / deadzone=21,11 / fast_pskip=1 / chroma_qp_offset=0 / threads=17 / lookahead_threads=2 / sliced_threads=0 / nr=0 / decimate=1 / interlaced=0 / bluray_compat=0 / constrained_intra=0 / bframes=3 / b_pyramid=2 / b_adapt=1 / b_bias=0 / direct=1 / weightb=1 / open_gop=0 / weightp=1 / keyint=250 / keyint_min=25 / scenecut=40 / intra_refresh=0 / rc=abr / mbtree=0 / bitrate=752 / ratetol=1.0 / qcomp=0.60 / qpmin=0 / qpmax=69 / qpstep=4 / ip_ratio=1.40 / pb_ratio=1.30 / aq=1:1.00
Default                                  : Yes
Forced                                   : No

Audio
ID                                       : 2
Format                                   : AAC LC
Format/Info                              : Advanced Audio Codec Low Complexity
Codec ID                                 : A_AAC-2
Duration                                 : 2 h 45 min
Bit rate                                 : 270 kb/s
Channel(s)                               : 6 channels
Channel layout                           : C L R Ls Rs LFE
Sampling rate                            : 44.1 kHz
Frame rate                               : 43.066 FPS (1024 SPF)
Compression mode                         : Lossy
Stream size                              : 320 MiB (26%)
Title                                    : LatestHDmovies.Club
Language                                 : Hindi
Default                                  : Yes
Forced                                   : No

Text
ID                                       : 3
Format                                   : UTF-8
Codec ID                                 : S_TEXT/UTF8
Codec ID/Info                            : UTF-8 Plain Text
Duration                                 : 2 h 38 min
Bit rate                                 : 38 b/s
Count of elements                        : 1545
Stream size                              : 45.2 KiB (0%)
Title                                    : LatestHDmovies.Club
Language                                 : English
Default                                  : No
Forced                                   : No










Files:

  • [LatestHDmovies.Club]-Kalank (2019) 720p WEBRip Hindi x264 AAC 5.1 ESub.mkv (1.2 GB)

There are currently no comments. Feel free to leave one :)

Code:

  • udp://tracker.coppersurfer.tk:6969/announce
  • udp://tracker.leechers-paradise.org:6969/announce
  • udp://bt.xxx-tracker.com:2710/announce
  • udp://tracker.internetwarriors.net:1337/announce
  • udp://tracker.openbittorrent.com:80/announce
  • udp://explodie.org:6969/announce
  • udp://tracker.opentrackr.org:1337/announce
  • udp://tracker.tiny-vps.com:6969/announce
  • udp://open.demonii.si:1337/announce
  • udp://tracker.torrent.eu.org:451/announce
  • udp://tracker.pirateparty.gr:6969/announce
  • udp://ipv4.tracker.harry.lu:80/announce
  • udp://tracker.cyberia.is:6969/announce
  • udp://9.rarbg.to:2710/announce
  • udp://tracker.zer0day.to:1337/announce
  • udp://tracker.leechers-paradise.org:6969/announce
  • udp://coppersurfer.tk:6969/announce
DOWNLOAD Torrent
X
Attention! Use a VPN when Accessing Free Content !
Your IP address is - Country:
Your Internet provider Tracks your Activity! Hide your IP ADDRESS with a VPN!
Bonus: Get Lag-Free Streams & No popups with any VPN Purchased !

Download Here