Loading...

Hum Hain Rahi Pyar Ke (1993) 720p HDRip Hindi x264 AAC.-.LHDm

  • Category Movies
  • Type Bollywood
  • Language Hindi
  • Total size 1.1 GB
  • Uploaded By LHDmovies
  • Downloads 2141
  • Last checked 3 months ago
  • Date uploaded 3 months ago
  • Seeders 39
  • Leechers 13

Hum Hain Rahi Pyar Ke

Rahul Malhotra (Aamir Khan) is the manager of the heavily in debt family business. He is also the guardian of his dead sister's mischievous kids. Rahul hires Vaijayanti (Juhi Chawla) as governess. Vaijayanti is a runaway from home as she does not want to marry the man her orthodox family has chosen for her. Predictably, Rahul and Vaijayanti fall in love. Maya (Navneet Nishan), a rich girl in love with Rahul tries to ruin his family and his business, but all ends happily.

Infohash : 2D2AC302E025A2588A68F539DBD88468E7274BB4





Visit Our Web - Click here


General
Unique ID                                : 168873821480239374536723391125516574250 (0x7F0BEA3AE5830C6F742D0384A435DE2A)
Complete name                            : C:\Users\Administrator\Downloads\Video\[LatestHDmovies.pw]-Hum Hain Rahi Pyar Ke (1993) 720p HDRip Hindi x264 AAC.mkv
Format                                   : Matroska
Format version                           : Version 4
File size                                : 1.14 GiB
Duration                                 : 2 h 35 min
Overall bit rate                         : 1 049 kb/s
Movie name                               : www.LatestHDmovies.pw
Encoded date                             : UTC 2019-07-22 13:21:00
Writing application                      : mkvmerge v29.0.0 ('Like It Or Not') 32-bit
Writing library                          : libebml v1.3.6 + libmatroska v1.4.9

Video
ID                                       : 1
Format                                   : AVC
Format/Info                              : Advanced Video Codec
Format profile                           : [email protected]
Format settings                          : CABAC / 4 Ref Frames
Format settings, CABAC                   : Yes
Format settings, Reference frames        : 4 frames
Codec ID                                 : V_MPEG4/ISO/AVC
Duration                                 : 2 h 35 min
Bit rate                                 : 914 kb/s
Width                                    : 1 280 pixels
Height                                   : 532 pixels
Display aspect ratio                     : 2.40:1
Frame rate mode                          : Constant
Frame rate                               : 25.000 FPS
Color space                              : YUV
Chroma subsampling                       : 4:2:0
Bit depth                                : 8 bits
Scan type                                : Progressive
Bits/(Pixel*Frame)                       : 0.054
Stream size                              : 1 024 MiB (88%)
Title                                    : LatestHDmovies.pw
Writing library                          : x264 core 157
Encoding settings                        : cabac=1 / ref=1 / deblock=1:0:0 / analyse=0x3:0x3 / me=dia / subme=1 / psy=1 / psy_rd=1.00:0.00 / mixed_ref=0 / me_range=16 / chroma_me=1 / trellis=0 / 8x8dct=1 / cqm=0 / deadzone=21,11 / fast_pskip=1 / chroma_qp_offset=0 / threads=17 / lookahead_threads=2 / sliced_threads=0 / nr=0 / decimate=1 / interlaced=0 / bluray_compat=0 / constrained_intra=0 / bframes=3 / b_pyramid=2 / b_adapt=1 / b_bias=0 / direct=1 / weightb=1 / open_gop=0 / weightp=1 / keyint=250 / keyint_min=25 / scenecut=40 / intra_refresh=0 / rc=abr / mbtree=0 / bitrate=914 / ratetol=1.0 / qcomp=0.60 / qpmin=0 / qpmax=69 / qpstep=4 / ip_ratio=1.40 / pb_ratio=1.30 / aq=1:1.00
Default                                  : Yes
Forced                                   : No

Audio
ID                                       : 2
Format                                   : AAC LC
Format/Info                              : Advanced Audio Codec Low Complexity
Codec ID                                 : A_AAC-2
Duration                                 : 2 h 35 min
Bit rate                                 : 128 kb/s
Channel(s)                               : 2 channels
Channel layout                           : L R
Sampling rate                            : 44.1 kHz
Frame rate                               : 43.066 FPS (1024 SPF)
Compression mode                         : Lossy
Delay relative to video                  : -37 ms
Stream size                              : 143 MiB (12%)
Title                                    : LatestHDmovies.pw
Language                                 : Hindi
Default                                  : Yes
Forced                                   : No









Files:

  • [LatestHDmovies.pw]-Hum Hain Rahi Pyar Ke (1993) 720p HDRip Hindi x264 AAC.mkv (1.1 GB)

There are currently no comments. Feel free to leave one :)

Code:

  • udp://tracker.openbittorrent.com:80/announce
  • udp://tracker.publicbt.com:80/announce
DOWNLOAD Torrent
X
Attention! Use a VPN when Accessing Free Content !
Your IP address is - Country:
Your Internet provider Tracks your Activity! Hide your IP ADDRESS with a VPN!
Bonus: Get Lag-Free Streams & No popups with any VPN Purchased !

Download Here