Loading...

WWE.SummerSlam.2019.PPV.Web.h264.AAC.-.LHDm

  • Category TV
  • Type HD
  • Language English
  • Total size 2.5 GB
  • Uploaded By LHDmovies
  • Downloads 1392
  • Last checked 3 months ago
  • Date uploaded 3 months ago
  • Seeders 15
  • Leechers 6

Infohash : 4383FD8824E5BFD4F4AB5B31A9BC25B2381864CF





visit OR Website Click here


General
Complete name                            : C:\Users\Administrator\Downloads\Video\[LatestHDmovies.pw]-WWE.SummerSlam.2019.PPV.H264.AAC.mp4
Format                                   : MPEG-4
Format profile                           : Base Media
Codec ID                                 : isom (isom/iso2/avc1/mp41)
File size                                : 2.52 GiB
Duration                                 : 3 h 29 min
Overall bit rate mode                    : Variable
Overall bit rate                         : 1 726 kb/s
Encoded date                             : UTC 1970-01-01 00:00:00
Tagged date                              : UTC 2019-08-12 02:53:50
Writing application                      : Lavf53.24.2

Video
ID                                       : 1
Format                                   : AVC
Format/Info                              : Advanced Video Codec
Format profile                           : [email protected]
Format settings                          : CABAC / 4 Ref Frames
Format settings, CABAC                   : Yes
Format settings, Reference frames        : 4 frames
Format settings, GOP                     : M=1, N=60
Codec ID                                 : avc1
Codec ID/Info                            : Advanced Video Coding
Duration                                 : 3 h 29 min
Bit rate mode                            : Variable
Bit rate                                 : 1 592 kb/s
Maximum bit rate                         : 1 663 kb/s
Width                                    : 896 pixels
Height                                   : 504 pixels
Display aspect ratio                     : 16:9
Frame rate mode                          : Variable
Frame rate                               : 29.970 (29970/1000) FPS
Minimum frame rate                       : 0.189 FPS
Maximum frame rate                       : 30.303 FPS
Original frame rate                      : 30.000 FPS
Standard                                 : NTSC
Color space                              : YUV
Chroma subsampling                       : 4:2:0
Bit depth                                : 8 bits
Scan type                                : Progressive
Bits/(Pixel*Frame)                       : 0.118
Stream size                              : 2.32 GiB (92%)
Encoded date                             : UTC 1970-01-01 00:00:00
Tagged date                              : UTC 1970-01-01 00:00:00
Color range                              : Limited
Color primaries                          : BT.709
Transfer characteristics                 : BT.709
Matrix coefficients                      : BT.709
Codec configuration box                  : avcC

Audio
ID                                       : 2
Format                                   : AAC LC
Format/Info                              : Advanced Audio Codec Low Complexity
Codec ID                                 : mp4a-40-2
Duration                                 : 3 h 29 min
Bit rate mode                            : Variable
Bit rate                                 : 125 kb/s
Maximum bit rate                         : 4 025 Mb/s
Channel(s)                               : 2 channels
Channel layout                           : L R
Sampling rate                            : 48.0 kHz
Frame rate                               : 46.875 FPS (1024 SPF)
Compression mode                         : Lossy
Stream size                              : 187 MiB (7%)
Default                                  : Yes
Alternate group                          : 1
Encoded date                             : UTC 1970-01-01 00:00:00
Tagged date                              : UTC 1970-01-01 00:00:00

Text #1
ID                                       : 1-CC1
Format                                   : EIA-608
Muxing mode                              : SCTE 128 / DTVCC Transport
Muxing mode, more info                   : Muxed in Video #1
Duration                                 : 3 h 29 min
Bit rate mode                            : Constant
Stream size                              : 0.00 Byte (0%)
Encoded stream size                      : 0.00 Byte (0%)
CaptionServiceName                       : CC1

Text #2
ID                                       : 1-1
Format                                   : EIA-708
Muxing mode                              : SCTE 128 / DTVCC Transport
Muxing mode, more info                   : Muxed in Video #1
Duration                                 : 3 h 29 min
Bit rate mode                            : Constant
Stream size                              : 0.00 Byte (0%)
Encoded stream size                      : 0.00 Byte (0%)








Files:

  • [LatestHDmovies.pw]-WWE.SummerSlam.2019.PPV.H264.AAC.mp4 (2.5 GB)

Comments

Code:

  • udp://tracker.pirateparty.gr:6969/announce
  • udp://tracker.opentrackr.org:1337/announce
  • udp://tracker.internetwarriors.net:1337/announce
  • udp://9.rarbg.to:2710/announce
  • //tracker.torrentyorg.pl:80/announce
  • udp://9.rarbg.me:2740/announce
  • udp://thetracker.org:80/announce
  • udp://tracker.coppersurfer.tk:6969/announce
  • //tracker.fastdownload.xyz:443/announce
  • udp://torrentclub.tech:6969/announce
  • udp://open.demonii.si:1337/announce
  • //vps02.net.orel.ru:80/announce
  • udp://tracker.zer0day.to:1337/announce
  • udp://tracker.leechers-paradise.org:6969/announce
  • udp://coppersurfer.tk:6969/announce
DOWNLOAD Torrent
X
Attention! Use a VPN when Accessing Free Content !
Your IP address is - Country:
Your Internet provider Tracks your Activity! Hide your IP ADDRESS with a VPN!
Bonus: Get Lag-Free Streams & No popups with any VPN Purchased !

Download Here