Loading...

Luv Ka the End 2011 Hindi 720p WEB-DL x264 AAC { TaRa }.mkv

  • Category Movies
  • Type Bollywood
  • Language Hindi
  • Total size 1.6 GB
  • Uploaded By SkTara
  • Downloads 1038
  • Last checked 9 minutes ago
  • Date uploaded 5 days ago
  • Seeders 6
  • Leechers 2

Luv Ka The End

ComedyDramaRomanceForeign

Rhea is the quintessential girl next door, in love with Luv Nanda, the richest, most popular boy in college. On the eve of her 18th birthday, they plan to take their relationship to the 'next level'. When accidentally she finds out Luv is not as nice as she thought he was, she decides to get mad, but to go even and bring Luv Nanda down! All in span of one night with the help of her friends. Buckle up for one crazy night as the girls discover the meaning of love, life, friendship and more...

Infohash : 4204F42473BB5243C77C993B3D48770142E47864


Luv Ka the End 2011 Hindi 720p WEB-DL x264 AAC { TaRa }.mkv


===================================================================
General
Complete name : Luv Ka the End 2011 Hindi 720p WEB-DL x264 AAC { TaRa }.mkv
Format : Matroska
Format version : Version 4
File size : 1.59 GiB
Duration : 1 h 46 min
Overall bit rate : 2 131 kb/s
===================================================================
Video
ID : 1
Format : AVC
Format/Info : Advanced Video Codec
Format profile : [email protected]
Format settings : CABAC / 4 Ref Frames
Format settings, CABAC : Yes
Format settings, Reference : 4 frames
Codec ID : V_MPEG4/ISO/AVC
Duration : 1 h 46 min
Bit rate : 2 000 kb/s
Width : 1 280 pixels
Height : 544 pixels
Display aspect ratio : 2.35:1
Frame rate mode : Constant
Frame rate : 23.976 (23976/1000) FPS
Color space : YUV
Chroma subsampling : 4:2:0
Bit depth : 8 bits
Scan type : Progressive
Bits/(Pixel*Frame) : 0.120
Stream size : 1.49 GiB (94%)
Title : .....::::: TaRa :::::.....
Language : Hindi
Default : Yes
Forced : No
===================================================================
Audio
ID : 2
Format : AAC LC
Format/Info : Advanced Audio Codec Low Complexity
Codec ID : A_AAC-2
Duration : 1 h 46 min
Bit rate : 129 kb/s
Channel(s) : 2 channels
Channel layout : L R
Sampling rate : 48.0 kHz
Frame rate : 46.875 FPS (1024 SPF)
Compression mode : Lossy
Delay relative to video : -21 ms
Stream size : 98.1 MiB (6%)
Title : .....::::: TaRa :::::.....
Language : Hindi
Default : Yes
Forced : No
===================================================================




































Files:

Luv Ka the End 2011 Hindi 720p WEB-DL x264 AAC { TaRa }.mkv
  • Torrent TaRa Digital Team.txt (0.7 KB)
  • Torrent TaRa Digital Team PC Info.nfo (6.5 KB)
  • 04585a4002b16f5096407b7b0f4e8137.jpg (170.3 KB)
  • lkte_desktop.jpg (282.2 KB)
  • Luv Ka the End 2011 Hindi 720p WEB-DL x264 AAC { TaRa }.mkv (1.6 GB)

Comments

Code:

  • udp://tracker.coppersurfer.tk:6969/announce
  • udp://tracker.leechers-paradise.org:6969/announce
  • udp://bt.xxx-tracker.com:2710/announce
  • udp://tracker.internetwarriors.net:1337/announce
  • udp://tracker.openbittorrent.com:80/announce
  • udp://explodie.org:6969/announce
  • udp://tracker.opentrackr.org:1337/announce
  • udp://tracker.tiny-vps.com:6969/announce
  • udp://open.demonii.si:1337/announce
  • udp://tracker.torrent.eu.org:451/announce
  • udp://tracker.pirateparty.gr:6969/announce
  • udp://ipv4.tracker.harry.lu:80/announce
  • udp://tracker.cyberia.is:6969/announce
  • udp://9.rarbg.to:2710/announce
  • udp://denis.stalker.upeer.me:6969/announce
cdn
DOWNLOAD Torrent
X
Attention! Use a VPN when Accessing Free Content !
Your IP address is - Country:
Your Internet provider Tracks your Activity! Hide your IP ADDRESS with a VPN!
Bonus: Get Lag-Free Streams & No popups with any VPN Purchased !

Download Here