Loading...

Sacred.Games.S02.720p.NF.WEB-DL.Dual-[Hindi-Englsih]-AAC.x264-Bon...

  • Category TV
  • Type HD
  • Language Hindi
  • Total size 2.3 GB
  • Uploaded By BonsaiHD
  • Downloads 45686
  • Last checked 1 month ago
  • Date uploaded 1 month ago
  • Seeders 106
  • Leechers 51

Infohash : 2407ED3048968FE565DD5E6AF439E1EBD1D80183



bonsaihd.com






Code:


Format                                   : Matroska
Format version                           : Version 4
File size                                : 363 MiB
Duration                                 : 51 min 18 s
Overall bit rate                         : 989 kb/s
Encoded date                             : UTC 2019-08-14 18:55:03
Writing application                      : mkvmerge v30.1.0 ('Forever And More') 64-bit
Writing library                          : libebml v1.3.6 + libmatroska v1.4.9

Video
ID                                       : 1
Format                                   : VP9
Codec ID                                 : V_VP9
Duration                                 : 51 min 18 s
Bit rate                                 : 792 kb/s
Width                                    : 1 280 pixels
Height                                   : 720 pixels
Display aspect ratio                     : 16:9
Frame rate mode                          : Constant
Frame rate                               : 25.000 FPS
Color space                              : YUV
Bits/(Pixel*Frame)                       : 0.034
Stream size                              : 291 MiB (80%)
Default                                  : Yes
Forced                                   : No
Color range                              : Limited
Color primaries                          : BT.709
Transfer characteristics                 : BT.709
Matrix coefficients                      : BT.709

Audio #1
ID                                       : 2
Format                                   : AAC LC SBR
Format/Info                              : Advanced Audio Codec Low Complexity with Spectral Band Replication
Commercial name                          : HE-AAC
Format settings                          : Explicit
Codec ID                                 : A_AAC-2
Duration                                 : 51 min 18 s
Bit rate                                 : 96.0 kb/s
Channel(s)                               : 2 channels
Channel layout                           : L R
Sampling rate                            : 48.0 kHz
Frame rate                               : 23.438 FPS (2048 SPF)
Compression mode                         : Lossy
Stream size                              : 35.2 MiB (10%)
Language                                 : English
Default                                  : Yes
Forced                                   : No

Audio #2
ID                                       : 3
Format                                   : AAC LC SBR
Format/Info                              : Advanced Audio Codec Low Complexity with Spectral Band Replication
Commercial name                          : HE-AAC
Format settings                          : Explicit
Codec ID                                 : A_AAC-2
Duration                                 : 51 min 18 s
Bit rate                                 : 96.0 kb/s
Channel(s)                               : 2 channels
Channel layout                           : L R
Sampling rate                            : 48.0 kHz
Frame rate                               : 23.438 FPS (2048 SPF)
Compression mode                         : Lossy
Stream size                              : 35.2 MiB (10%)
Default                                  : No
Forced                                   : No





Files:

Sacred.Games.S02.720p.NF.WEB-DL.AAC.H.vp9-BonsaiHD
  • s02e01.mkv (391.9 MB)
  • s02e08.mkv (338.9 MB)
  • s02e03.mkv (326.4 MB)
  • s02e04.mkv (295.2 MB)
  • s02e06.mkv (270.5 MB)
  • s02e02.mkv (264.6 MB)
  • s02e05.mkv (263.2 MB)
  • s02e07.mkv (229.9 MB)
  • bonsaihd.com.txt (0.0 KB)

Comments

Code:

  • udp://62.138.0.158:6969/announce
  • udp://188.241.58.209:6969/announce
  • udp://188.241.58.209:6969/announce
  • udp://185.225.17.100:1337/announce
  • udp://93.158.213.92:1337/announce
  • udp://151.80.120.115:2710/announce
  • udp://151.80.120.115:2710/announce
  • //176.113.71.19:6961/announce
  • udp://185.19.107.254:80/announce
  • udp://208.83.20.20:6969/announce
  • udp://91.216.110.52:451/announce
DOWNLOAD Torrent
X
Attention! Use a VPN when Accessing Free Content !
Your IP address is - Country:
Your Internet provider Tracks your Activity! Hide your IP ADDRESS with a VPN!
Bonus: Get Lag-Free Streams & No popups with any VPN Purchased !

Download Here