Loading...

The.Birdcatcher.2019.1080p.WEBRip.x264.LLG

  • Category Movies
  • Type HD
  • Language English
  • Total size 1.2 GB
  • Uploaded By LifeLongg
  • Downloads 261
  • Last checked 5 days ago
  • Date uploaded 6 days ago
  • Seeders 10
  • Leechers 7

The Bird Catcher

WarDrama

After being torn away from her family, 14-year-old Esther must assume a new identity in order to navigate her survival under the hostility of Nazi-occupied Norway.

Infohash : 2B25C4186087D10893D680308C83BF2715F02845

Quote:





******************************Thumbnail:**********************




******************************Screenshots:********************

Screenshot 1

Screenshot 2

Screenshot 3

Screenshot 4

Screenshot 5

Screenshot 6

Screenshot 7

Screenshot 8

Screenshot 9

Screenshot 0

***************************************************************
General
The.Birdcatcher.2019.1080p.WEBRip.x264.LLG.mp4
Format : MPEG-4
Format profile : Base Media
Codec ID : isom (isom/iso2/avc1/mp41)
File size : 1.17 GiB
Duration : 1 h 40 min
Overall bit rate mode : Variable
Overall bit rate : 1 667 kb/s
Writing application : Lavf57.83.100

Video
ID : 1
Format : AVC
Format/Info : Advanced Video Codec
Format profile : [email protected]
Format settings : CABAC / 1 Ref Frames
Format settings, CABAC : Yes
Format settings, Reference frames : 1 frame
Codec ID : avc1
Codec ID/Info : Advanced Video Coding
Duration : 1 h 40 min
Bit rate mode : Variable
Bit rate : 1 504 kb/s
Maximum bit rate : 4 500 kb/s
Width : 1 904 pixels
Height : 800 pixels
Display aspect ratio : 2.40:1
Frame rate mode : Constant
Frame rate : 23.976 (23976/1000) FPS
Color space : YUV
Chroma subsampling : 4:2:0
Bit depth : 8 bits
Scan type : Progressive
Bits/(Pixel*Frame) : 0.041
Stream size : 1.06 GiB (90%)
Codec configuration box : avcC

Audio
ID : 2
Format : AAC LC
Format/Info : Advanced Audio Codec Low Complexity
Codec ID : mp4a-40-2
Duration : 1 h 40 min
Bit rate mode : Constant
Bit rate : 160 kb/s
Channel(s) : 2 channels
Channel layout : L R
Sampling rate : 48.0 kHz
Frame rate : 46.875 FPS (1024 SPF)
Compression mode : Lossy
Stream size : 115 MiB (10%)
Default : Yes
Alternate group : 1


***************************************************************



Files:

The.Birdcatcher.2019.1080p.WEBRip.x264.LLG
  • Sample.mp4 (15.1 MB)
  • The.Birdcatcher.2019.1080p.WEBRip.x264.LLG.mp4 (1.2 GB)

There are currently no comments. Feel free to leave one :)

Code:

  • udp://tracker.openbittorrent.com:80/announce
  • udp://tracker.opentrackr.org:1337/announce
  • udp://exodus.desync.com:6969/announce
  • udp://tracker.coppersurfer.tk:6969/announce
  • udp://tracker.iamhansen.xyz:2000/announce
  • udp://tracker.opentrackr.org:1337/announce
  • udp://open.demonii.si:1337/announce
  • udp://tracker.pirateparty.gr:6969/announce
DOWNLOAD Torrent
X
Attention! Use a VPN when Accessing Free Content !
Your IP address is - Country:
Your Internet provider Tracks your Activity! Hide your IP ADDRESS with a VPN!
Bonus: Get Lag-Free Streams & No popups with any VPN Purchased !

Download Here