Loading...

Batman & Mr. Freeze SubZero (1998) (1080p BDRip x265 10bit FLAC 2...

  • Category Movies
  • Type HEVC/x265
  • Language English
  • Total size 3.1 GB
  • Uploaded By Goki
  • Downloads 520
  • Last checked 1 day ago
  • Date uploaded 4 days ago
  • Seeders 35
  • Leechers 9

Batman & Mr. Freeze: SubZero

ActionAnimationCrime

When a desperate Mr. Freeze, to save his dying wife, kidnaps Barbara (Batgirl) Gordon as an involuntary organ donor, Batman and Robin must find her before the operation can begin.

Infohash : B6BC37CE452F9B5153BDACC34D5B6679430D908D




Batman & Mr. Freeze SubZero (1998) IMDB

Screenshots













Media Information



Unique ID : 173383939527343061666855812315227711956 (0x82708837C7FCBDCDBA1D180EC8D569D4)
Complete name : Batman & Mr. Freeze SubZero (1998) (1080p BDRip x265 10bit FLAC 2.0 - Goki).mkv
Format : Matroska
Format version : Version 4
File size : 3.14 GiB
Duration : 1 h 6 min
Overall bit rate mode : Variable
Overall bit rate : 6 741 kb/s
Movie name : Batman & Mr. Freeze SubZero (1998) (1080p BDRip x265 10bit FLAC 2.0 - Goki).mkv
Encoded date : UTC 2019-10-09 01:33:25
Writing application : mkvmerge v28.2.0 ('The Awakening') 64-bit
Writing library : libebml v1.3.6 + libmatroska v1.4.9

Video
ID : 1
Format : HEVC
Format/Info : High Efficiency Video Coding
Format profile : Main [email protected]@Main
Codec ID : V_MPEGH/ISO/HEVC
Duration : 1 h 6 min
Bit rate : 6 074 kb/s
Width : 1 920 pixels
Height : 1 080 pixels
Display aspect ratio : 16:9
Frame rate mode : Constant
Frame rate : 23.976 (24000/1001) FPS
Color space : YUV
Chroma subsampling : 4:2:0
Bit depth : 10 bits
Bits/(Pixel*Frame) : 0.122
Stream size : 2.82 GiB (90%)
Writing library : x265 2.9+8-27d8424c799d:[Windows][MSVC 1915][64 bit] 10bit
Encoding settings : cpuid=1111039 / frame-threads=2 / numa-pools=6 / wpp / no-pmode / no-pme / no-psnr / no-ssim / log-level=2 / input-csp=1 / input-res=1920x1080 / interlace=0 / total-frames=0 / level-idc=0 / high-tier=1 / uhd-bd=0 / ref=4 / no-allow-non-conformance / no-repeat-headers / annexb / no-aud / no-hrd / info / hash=0 / no-temporal-layers / open-gop / min-keyint=23 / keyint=250 / gop-lookahead=0 / bframes=8 / b-adapt=2 / b-pyramid / bframe-bias=0 / rc-lookahead=100 / lookahead-slices=4 / scenecut=40 / radl=0 / no-intra-refresh / ctu=64 / min-cu-size=8 / no-rect / no-amp / max-tu-size=32 / tu-inter-depth=2 / tu-intra-depth=2 / limit-tu=4 / rdoq-level=2 / dynamic-rd=0.00 / no-ssim-rd / signhide / no-tskip / nr-intra=0 / nr-inter=0 / no-constrained-intra / no-strong-intra-smoothing / max-merge=3 / limit-refs=2 / limit-modes / me=3 / subme=5 / merange=57 / temporal-mvp / weightp / weightb / no-analyze-src-pics / deblock=0:0 / sao / no-sao-non-deblock / rd=6 / no-early-skip / rskip / no-fast-intra / no-tskip-fast / no-cu-lossless / b-intra / no-splitrd-skip / rdpenalty=0 / psy-rd=1.30 / psy-rdoq=2.00 / no-rd-refine / no-lossless / cbqpoffs=0 / crqpoffs=0 / rc=crf / crf=18.0 / qcomp=0.60 / qpstep=4 / stats-write=0 / stats-read=0 / ipratio=1.40 / pbratio=1.30 / aq-mode=2 / aq-strength=1.10 / cutree / zone-count=0 / no-strict-cbr / qg-size=32 / no-rc-grain / qpmax=69 / qpmin=0 / no-const-vbv / sar=1 / overscan=0 / videoformat=5 / range=0 / colorprim=2 / transfer=2 / colormatrix=2 / chromaloc=0 / display-window=0 / max-cll=0,0 / min-luma=0 / max-luma=1023 / log2-max-poc-lsb=8 / vui-timing-info / vui-hrd-info / slices=1 / no-opt-qp-pps / no-opt-ref-list-length-pps / no-multi-pass-opt-rps / scenecut-bias=0.05 / no-opt-cu-delta-qp / no-aq-motion / no-hdr / no-hdr-opt / no-dhdr10-opt / no-idr-recovery-sei / analysis-reuse-level=5 / scale-factor=0 / refine-intra=0 / refine-inter=0 / refine-mv=0 / no-limit-sao / ctu-info=0 / no-lowpass-dct / refine-mv-type=0 / copy-pic=1 / max-ausize-factor=1.0 / no-dynamic-refine / no-single-sei
Language : English
Default : Yes
Forced : No

Audio
ID : 2
Format : FLAC
Format/Info : Free Lossless Audio Codec
Codec ID : A_FLAC
Duration : 1 h 6 min
Bit rate mode : Variable
Bit rate : 616 kb/s
Channel(s) : 2 channels
Channel layout : L R
Sampling rate : 48.0 kHz
Frame rate : 11.719 FPS (4096 SPF)
Bit depth : 16 bits
Compression mode : Lossless
Stream size : 293 MiB (9%)
Title : FLAC Audio / 2.0 / 48 kHz / 616 kbps / 16-bit
Language : English
Default : Yes
Forced : No

Text
ID : 3
Format : PGS
Codec ID : S_HDMV/PGS
Codec ID/Info : Picture based subtitle format used on BDs/HD-DVDs
Duration : 1 h 1 min
Bit rate : 53.4 kb/s
Count of elements : 1522
Stream size : 23.6 MiB (1%)
Language : English
Default : No
Forced : No

Menu
00:00:00.000 : :Chapter 1
00:02:14.926 : :Chapter 2
00:05:28.745 : :Chapter 3
00:07:46.299 : :Chapter 4
00:11:32.901 : :Chapter 5
00:13:45.199 : :Chapter 6
00:16:50.843 : :Chapter 7
00:19:30.503 : :Chapter 8
00:21:30.956 : :Chapter 9
00:25:22.855 : :Chapter 10
00:29:10.916 : :Chapter 11
00:32:27.195 : :Chapter 12
00:37:29.664 : :Chapter 13
00:38:53.665 : :Chapter 14
00:43:33.820 : :Chapter 15
00:46:13.729 : :Chapter 16
00:52:40.282 : :Chapter 17
00:54:31.935 : :Chapter 18
00:57:53.637 : :Chapter 19
01:00:57.737 : :Chapter 20
01:02:30.872 : :Chapter 21

Source Information



Unique ID : 120140041411116679687589462271063688667 (0x5A62215D22419B417B8195B156FB05DB)
Complete name : Batman.and.Mr.Freeze.SubZero.1998.1080p.BluRay.REMUX.AVC.FLAC.2.0-EPSiLON.mkv
Format : Matroska
Format version : Version 4
File size : 16.5 GiB
Duration : 1 h 6 min
Overall bit rate mode : Variable
Overall bit rate : 35.4 Mb/s
Encoded date : UTC 2018-03-29 22:42:53
Writing application : mkvmerge v21.0.0 ('Tardigrades Will Inherit The Earth') 64-bit
Writing library : libebml v1.3.5 + libmatroska v1.4.8

Video
ID : 1
Format : AVC
Format/Info : Advanced Video Codec
Format profile : [email protected]
Format settings : CABAC / 4 Ref Frames
Format settings, CABAC : Yes
Format settings, Reference frames : 4 frames
Codec ID : V_MPEG4/ISO/AVC
Duration : 1 h 6 min
Bit rate mode : Variable
Bit rate : 34.8 Mb/s
Maximum bit rate : 40.0 Mb/s
Width : 1 920 pixels
Height : 1 080 pixels
Display aspect ratio : 16:9
Frame rate mode : Constant
Frame rate : 23.976 (24000/1001) FPS
Color space : YUV
Chroma subsampling : 4:2:0
Bit depth : 8 bits
Scan type : Progressive
Bits/(Pixel*Frame) : 0.699
Stream size : 16.2 GiB (98%)
Title : MPEG-4 AVC Video / 34994 kbps / 1080p / 23.976 fps / 16:9 / High Profile 4.1
Language : English
Default : Yes
Forced : No

Audio
ID : 2
Format : FLAC
Format/Info : Free Lossless Audio Codec
Codec ID : A_FLAC
Duration : 1 h 6 min
Bit rate mode : Variable
Bit rate : 616 kb/s
Channel(s) : 2 channels
Channel layout : L R
Sampling rate : 48.0 kHz
Frame rate : 11.719 FPS (4096 SPF)
Bit depth : 16 bits
Compression mode : Lossless
Stream size : 293 MiB (2%)
Title : FLAC Audio / 2.0 / 48 kHz / 616 kbps / 16-bit
Writing library : libFLAC 1.2.1 (UTC 2007-09-17)
Language : English
Default : Yes
Forced : No

Text
ID : 3
Format : PGS
Codec ID : S_HDMV/PGS
Codec ID/Info : Picture based subtitle format used on BDs/HD-DVDs
Duration : 1 h 1 min
Bit rate : 53.4 kb/s
Count of elements : 1522
Stream size : 23.6 MiB (0%)
Title : SDH
Language : English
Default : No
Forced : No

Menu
00:00:00.000 : en:Chapter 1
00:02:14.926 : en:Chapter 2
00:05:28.745 : en:Chapter 3
00:07:46.299 : en:Chapter 4
00:11:32.901 : en:Chapter 5
00:13:45.199 : en:Chapter 6
00:16:50.843 : en:Chapter 7
00:19:30.503 : en:Chapter 8
00:21:30.956 : en:Chapter 9
00:25:22.855 : en:Chapter 10
00:29:10.916 : en:Chapter 11
00:32:27.195 : en:Chapter 12
00:37:29.664 : en:Chapter 13
00:38:53.665 : en:Chapter 14
00:43:33.820 : en:Chapter 15
00:46:13.729 : en:Chapter 16
00:52:40.282 : en:Chapter 17
00:54:31.935 : en:Chapter 18
00:57:53.637 : en:Chapter 19
01:00:57.737 : en:Chapter 20
01:02:30.872 : en:Chapter 21

.........................................................................................................................................


Files:

Batman & Mr. Freeze SubZero (1998) (1080p BDRip x265 10bit FLAC 2.0 - Goki)
  • Batman & Mr. Freeze SubZero (1998) (1080p BDRip x265 10bit FLAC 2.0 - Goki).mkv (3.1 GB)
  • Batman & Mr. Freeze SubZero (1998) (1080p BDRip x265 10bit FLAC 2.0 - Goki).nfo (5.7 KB)
  • Batman & Mr. Freeze SubZero (1998) (1080p BDRip x265 10bit FLAC 2.0 - Goki)-banner.jpg (55.1 KB)
  • Batman & Mr. Freeze SubZero (1998) (1080p BDRip x265 10bit FLAC 2.0 - Goki)-clearlogo.png (193.8 KB)
  • Batman & Mr. Freeze SubZero (1998) (1080p BDRip x265 10bit FLAC 2.0 - Goki)-disc.png (378.4 KB)
  • Batman & Mr. Freeze SubZero (1998) (1080p BDRip x265 10bit FLAC 2.0 - Goki)-fanart.jpg (216.6 KB)
  • Batman & Mr. Freeze SubZero (1998) (1080p BDRip x265 10bit FLAC 2.0 - Goki)-logo.png (193.8 KB)
  • Batman & Mr. Freeze SubZero (1998) (1080p BDRip x265 10bit FLAC 2.0 - Goki)-poster.jpg (78.8 KB)

Comments

Code:

  • udp://tracker.coppersurfer.tk:6969/announce
  • udp://tracker.opentrackr.org:1337/announce
  • udp://tracker.torrent.eu.org:451/announce
  • udp://tracker.internetwarriors.net:1337/announce
  • //tracker.opentrackr.org:1337/announce
  • udp://denis.stalker.upeer.me:6969/announce
  • udp://tracker.coppersurfer.tk:6969
  • udp://tracker.internetwarriors.net:1337
  • udp://9.rarbg.me:2720/announce
  • udp://explodie.org:6969/announce
  • //tracker3.itzmx.com:6961/announce
  • udp://tracker.cyberia.is:6969/announce
  • udp://thetracker.org/announce
  • udp://open.demonii.si:1337/announce
DOWNLOAD Torrent
X
Attention! Use a VPN when Accessing Free Content !
Your IP address is - Country:
Your Internet provider Tracks your Activity! Hide your IP ADDRESS with a VPN!
Bonus: Get Lag-Free Streams & No popups with any VPN Purchased !

Download Here