Loading...

Mission Mangal 2019 Hindi 1080p WEB-DL x264 AAC { TaRa }.mkv

  • Category Movies
  • Type Bollywood
  • Language Hindi
  • Total size 1.4 GB
  • Uploaded By SkTara
  • Downloads 6255
  • Last checked 1 day ago
  • Date uploaded 3 days ago
  • Seeders 133
  • Leechers 76

Mission Mangal

DramaHistory

A team of Indian scientists at ISRO (Indian Space Research Organisation) take on the extraordinary task of successfully sending a satellite into the orbit of planet Mars in a country's maiden attempt.

Infohash : 23E0655A2C038AA59A543B8A44AC8AB8027F9108


Mission Mangal 2019 Hindi 1080p WEB-DL x264 AAC { TaRa }.mkv


===================================================================
General
Complete name : Mission Mangal 2019 Hindi 1080p WEB-DL x264 AAC { TaRa }.mkv
Format : Matroska
Format version : Version 4
File size : 1.44 GiB
Duration : 2 h 10 min
Overall bit rate : 1 578 kb/s
===================================================================
Video
ID : 1
Format : AVC
Format/Info : Advanced Video Codec
Format profile : [email protected]
Format settings : CABAC / 6 Ref Frames
Format settings, CABAC : Yes
Format settings, Reference : 6 frames
Format settings, GOP : M=5, N=48
Codec ID : V_MPEG4/ISO/AVC
Duration : 2 h 10 min
Bit rate : 1 512 kb/s
Width : 1 920 pixels
Height : 1 080 pixels
Display aspect ratio : 16:9
Frame rate mode : Constant
Frame rate : 24.000 FPS
Color space : YUV
Chroma subsampling : 4:2:0
Bit depth : 8 bits
Scan type : Progressive
Bits/(Pixel*Frame) : 0.030
Stream size : 1.38 GiB (96%)
Title : .....::::: TaRa :::::....
Language : Hindi
Default : Yes
Forced : No
===================================================================
Audio
ID : 2
Format : AAC LC
Format/Info : Advanced Audio Codec Low Complexity
Codec ID : A_AAC-2
Duration : 2 h 10 min
Bit rate : 64.4 kb/s
Channel(s) : 2 channels
Channel layout : L R
Sampling rate : 48.0 kHz
Frame rate : 46.875 FPS (1024 SPF)
Compression mode : Lossy
Stream size : 60.1 MiB (4%)
Title : .....::::: TaRa :::::....
Language : Hindi
Default : Yes
Forced : No
===================================================================

























Files:

Mission Mangal 2019 Hindi 1080p WEB-DL x264 AAC { TaRa }.mkv
  • Torrent TaRa Digital Team.txt (0.7 KB)
  • Torrent TaRa Digital Team PC Info.nfo (6.5 KB)
  • images (1).jpg (42.9 KB)
  • mission_mangal_main_image.png (2.0 MB)
  • Mission Mangal 2019 Hindi 1080p WEB-DL x264 AAC { TaRa }.mkv (1.4 GB)

There are currently no comments. Feel free to leave one :)

Code:

  • udp://tracker.coppersurfer.tk:6969/announce
  • udp://tracker.leechers-paradise.org:6969/announce
  • udp://bt.xxx-tracker.com:2710/announce
  • udp://tracker.internetwarriors.net:1337/announce
  • udp://tracker.openbittorrent.com:80/announce
  • udp://explodie.org:6969/announce
  • udp://tracker.opentrackr.org:1337/announce
  • udp://tracker.tiny-vps.com:6969/announce
  • udp://open.demonii.si:1337/announce
  • udp://tracker.torrent.eu.org:451/announce
  • udp://tracker.pirateparty.gr:6969/announce
  • udp://ipv4.tracker.harry.lu:80/announce
  • udp://tracker.cyberia.is:6969/announce
  • udp://9.rarbg.to:2750/announce
  • udp://denis.stalker.upeer.me:6969/announce
DOWNLOAD Torrent
X
Attention! Use a VPN when Accessing Free Content !
Your IP address is - Country:
Your Internet provider Tracks your Activity! Hide your IP ADDRESS with a VPN!
Bonus: Get Lag-Free Streams & No popups with any VPN Purchased !

Download Here